<?xml version="1.0" standalone="no"?>
<!DOCTYPE svg PUBLIC "-//W3C//DTD SVG 1.1//EN" "http://www.w3.org/Graphics/SVG/1.1/DTD/svg11.dtd" >
<svg xmlns="http://www.w3.org/2000/svg" xmlns:xlink="http://www.w3.org/1999/xlink" version="1.1">
<metadata>
Created by FontForge 20200314 at Tue May 12 01:25:58 2015
 By Unknown
Created by Raph Levien using his own tools and FontForge. Copyright 2006 Raph Levien. Released under the Apache 2 license.
</metadata>
<defs>
<font id="Inconsolata-Bold" horiz-adv-x="1024" >
  <font-face 
    font-family="Inconsolata"
    font-weight="700"
    font-stretch="normal"
    units-per-em="2048"
    panose-1="2 11 6 9 3 0 3 0 0 0"
    ascent="1638"
    descent="-410"
    x-height="936"
    cap-height="1276"
    bbox="-25 -389 1059 1759"
    underline-thickness="102"
    underline-position="-410"
    unicode-range="U+0020-F40A"
  />
<missing-glyph 
 />
    <glyph glyph-name=".notdef" 
 />
    <glyph glyph-name="NULL" horiz-adv-x="0" 
 />
    <glyph glyph-name="nonmarkingreturn" 
 />
    <glyph glyph-name="space" unicode=" " 
 />
    <glyph glyph-name="exclam" unicode="!" 
d="M489 276q35 0 64.5 -13t51.5 -34t34 -47.5t12 -54.5q0 -30 -13 -56.5t-35.5 -47t-52 -32t-61.5 -11.5t-60.5 11.5t-50 31.5t-34 46.5t-12.5 57.5q0 30 12.5 57t34 47.5t50 32.5t60.5 12zM494 1374q66 0 104.5 -46t38.5 -150q0 -20 -2 -47t-4.5 -57t-5.5 -59t-4 -52
l-37 -557h-185l-28 557q-2 24 -5 55.5t-7 64t-6.5 63t-2.5 52.5q0 85 37.5 130.5t106.5 45.5z" />
    <glyph glyph-name="quotedbl" unicode="&#x22;" 
d="M596 1245q0 37 10.5 64.5t28.5 45.5t41 27t49 9q25 0 49 -9t42 -28.5t29 -49t11 -69.5q0 -29 -18 -94t-50 -156q-5 -15 -12.5 -36t-15 -43t-15.5 -43t-14 -36l-192 45l53 166q8 25 12 46.5t4 41.5zM240 1245q0 37 10.5 64.5t28 45.5t41 27t49.5 9q25 0 48.5 -9t42 -28.5
t29.5 -49t11 -69.5q0 -34 -17 -96.5t-49 -153.5l-57 -158l-195 45l54 166q8 25 13 46.5t5 41.5z" />
    <glyph glyph-name="numbersign" unicode="#" 
d="M326 1282l211 2l-39 -321h110l37 315l211 2l-37 -313h172l-20 -164h-172l-31 -277h182l-12 -159h-188l-41 -340l-211 -13l43 346h-115l-41 -335l-205 -2l37 335h-178l12 160h189l30 279h-202l10 161h211zM475 799l-31 -277h113l33 277h-115z" />
    <glyph glyph-name="dollar" unicode="$" 
d="M436 1333h205q8 -3 10 -8.5t2 -11.5q0 -3 -2 -11.5t-4 -18l-4 -19t-2 -15.5v-32q85 -17 157.5 -65.5t131.5 -119.5l-121 -153q-15 0 -22.5 7t-12.5 17t-8.5 21.5t-9.5 21.5q-20 23 -53.5 45t-71.5 31v-301q81 -26 143 -58t103.5 -74t62.5 -94.5t21 -119.5
q0 -63 -22 -120.5t-63.5 -104.5t-100.5 -81t-134 -49v-110h-205v104q-94 16 -181 63t-155 122l125 176q17 -5 26.5 -15t14.5 -21t8.5 -21t8.5 -15q34 -37 72.5 -63t90.5 -37v366q-73 27 -130.5 60t-97 73.5t-60.5 90t-21 108.5q0 56 21 107t60 92t94.5 70.5t123.5 43.5v119z
M631 215q54 19 87.5 54t33.5 93q0 48 -29.5 84t-91.5 58v-289zM446 1024q-42 -11 -68 -39t-26 -72q0 -32 21 -66t73 -52v229z" />
    <glyph glyph-name="percent" unicode="%" 
d="M770 1276h209l-731 -1276h-203zM27 1020q0 58 20.5 109t55 88.5t80.5 59t98 21.5t98.5 -22t81 -59.5t54.5 -89t20 -109.5q0 -62 -19.5 -113t-53.5 -88t-80.5 -57.5t-100.5 -20.5q-52 0 -98 21t-80.5 58.5t-55 89t-20.5 112.5zM197 1018q0 -27 6 -50.5t16.5 -41t25 -27.5
t31.5 -10t32 10t25.5 27.5t16.5 41t6 50.5t-6 51t-16.5 41.5t-25.5 28t-32 10.5t-31.5 -10.5t-25 -28t-16.5 -41.5t-6 -51zM494 260q0 58 20.5 109t55 89t80.5 59.5t98 21.5t98 -22t80.5 -60t54.5 -89.5t20 -109.5q0 -62 -19 -113t-53 -87.5t-80.5 -57t-100.5 -20.5
q-52 0 -98 21t-80.5 58.5t-55 88.5t-20.5 112zM664 258q0 -27 6 -50.5t16.5 -41t25 -27.5t31.5 -10t31.5 10t25.5 27.5t17 41t6 50.5t-6 51t-17 41.5t-25.5 28t-31.5 10.5t-31.5 -10.5t-25 -28t-16.5 -41.5t-6 -51z" />
    <glyph glyph-name="ampersand" unicode="&#x26;" 
d="M797 532q1 12 1 25t1.5 25t6 23t15.5 20l185 -129q-39 -66 -76.5 -125.5t-69.5 -106.5q15 -21 33 -44t36 -46.5t35.5 -46.5t32.5 -43l-172 -127l-100 158q-31 -31 -68 -58t-78 -47t-85 -31.5t-88 -11.5q-85 0 -149.5 26t-108 71t-65.5 107t-22 134q0 59 19.5 118
t53.5 111.5t80.5 97t100.5 75.5q-71 78 -107 156.5t-36 146.5q0 60 24 112.5t65 91t96.5 60.5t117.5 22q67 0 121.5 -24.5t93.5 -64.5t60.5 -91.5t21.5 -105.5q0 -48 -14.5 -97t-41 -94.5t-64 -83.5t-83.5 -63l174 -250q19 25 32.5 54t21.5 56zM381 1008q0 -39 21 -88
t69 -111q25 15 43.5 37t30.5 47.5t18 52.5t6 53t-6 49t-18 40.5t-29 27.5t-39 10q-48 0 -72 -33.5t-24 -84.5zM406 563q-33 -21 -56.5 -48.5t-37.5 -59t-20.5 -64t-6.5 -63.5q0 -34 11 -66.5t31 -58t47.5 -41t59.5 -15.5q57 0 102.5 34t77.5 83z" />
    <glyph glyph-name="quotesingle" unicode="'" 
d="M424 1245q0 37 10.5 64.5t28 45.5t41 27t49.5 9q25 0 49 -9t42 -28.5t29 -49t11 -69.5q0 -69 -66 -250l-57 -158l-194 45l53 166q8 25 13 46.5t5 41.5z" />
    <glyph glyph-name="parenleft" unicode="(" 
d="M885 1184q-20 -8 -35 -8q-12 0 -22 3t-19 3h-6t-8 -2q-80 -47 -143.5 -111.5t-107.5 -147t-67.5 -183t-23.5 -218.5q0 -115 30 -222.5t85.5 -201.5t134.5 -172.5t178 -136.5l-90 -154q-128 65 -230 158.5t-173 208t-109.5 247.5t-38.5 277q0 148 39 278t111 238t174 192
t227 140z" />
    <glyph glyph-name="parenright" unicode=")" 
d="M199 1374q136 -57 244 -148t184 -204t116.5 -243.5t40.5 -268.5q0 -139 -42 -273t-119.5 -250.5t-188 -209.5t-248.5 -150l-53 174q104 48 185.5 122t137.5 165.5t85.5 197.5t29.5 218q0 232 -110 409.5t-316 282.5z" />
    <glyph glyph-name="asterisk" unicode="*" 
d="M406 1075h241l-43 -315l285 129l76 -176l-320 -99l234 -280l-164 -127l-199 301l-205 -303l-161 129l239 278l-319 99l71 186l293 -137z" />
    <glyph glyph-name="plus" unicode="+" 
d="M424 1083h199v-329h327v-174h-327v-359h-199v359h-340v174h340v329z" />
    <glyph glyph-name="comma" unicode="," 
d="M662 61q0 -81 -60 -181.5t-182 -225.5l-115 104q28 27 52.5 55.5t42.5 55.5t28 50.5t10 39.5q0 11 -9 20.5t-21 20.5q-26 22 -47 46.5t-21 59.5q0 30 11 56t31 45.5t48.5 31t63.5 11.5q32 0 62.5 -14t54 -39t37.5 -59.5t14 -76.5z" />
    <glyph glyph-name="hyphen" unicode="-" 
d="M131 750h768v-187h-768v187z" />
    <glyph glyph-name="period" unicode="." 
d="M494 252q30 0 58 -12.5t49 -33t33.5 -45.5t12.5 -50q0 -28 -12 -53t-33 -44t-49 -30t-59 -11q-32 0 -60 11t-48.5 29.5t-32 43.5t-11.5 54t12 54.5t33 45t48.5 30.5t58.5 11z" />
    <glyph glyph-name="slash" unicode="/" 
d="M106 -10l635 1376l179 -92l-633 -1370z" />
    <glyph glyph-name="zero" unicode="0" 
d="M821 1122q63 -83 100 -213t37 -291q0 -167 -37 -290.5t-98.5 -205t-142.5 -121.5t-168 -40q-91 0 -171.5 48.5t-140.5 136.5t-95 211t-35 272t36 273t96.5 213t140.5 138.5t169 49.5q51 0 94 -11.5t80.5 -34.5t70 -56.5t64.5 -78.5zM672 977q-25 59 -66 93t-92 34
q-45 0 -85.5 -32.5t-71.5 -91.5t-49.5 -141.5t-18.5 -183.5q0 -18 1 -40t2.5 -44.5t3 -43.5t3.5 -35zM356 293q25 -59 66 -93t92 -34q45 0 85.5 32.5t71.5 91t49.5 141t18.5 183.5q0 18 -1 40.5t-2.5 45t-3.5 43t-3 35.5z" />
    <glyph glyph-name="one" unicode="1" 
d="M653 1276v-1276h-225v1016l-219 -66l-55 140l346 186h153z" />
    <glyph glyph-name="two" unicode="2" 
d="M111 1047q58 126 161 192t236 66q87 0 160 -30t126 -81.5t83 -119.5t30 -144q0 -78 -28.5 -145t-74 -126.5t-102.5 -114.5t-114 -111.5t-108.5 -115.5t-86.5 -127h441q11 1 19 6.5t16 11.5t17 10.5t23 4.5v-223h-792v127q28 69 67.5 132t83.5 120t90 107.5t88 95.5
q32 34 71.5 72t74 81t57.5 91t23 102q0 37 -12.5 70.5t-35 58t-54.5 39t-70 14.5q-48 0 -79.5 -12.5t-51.5 -31.5t-31.5 -42.5t-19.5 -46t-14.5 -41t-16.5 -27.5z" />
    <glyph glyph-name="three" unicode="3" 
d="M877 950q0 -50 -16 -93t-42.5 -77.5t-59 -59.5t-65.5 -40q39 -14 77 -43t68 -71t48 -95.5t18 -116.5q0 -88 -29 -160.5t-85 -124t-138.5 -80t-189.5 -28.5q-106 0 -199 39.5t-168 132.5l162 197q9 -6 13 -12t7 -14.5t6.5 -20t10.5 -27.5q12 -21 31 -38.5t43 -30t51 -20
t53 -7.5q42 0 78.5 14t64.5 41.5t44 67.5t16 92q0 46 -18.5 82t-51.5 61t-78 38t-98 13q-5 0 -11.5 -0.5t-18.5 -1t-32 -1t-51 -1.5v185q92 0 155 14t101.5 40t55 63.5t16.5 84.5q0 32 -11 60.5t-32 49.5t-51.5 33.5t-69.5 12.5q-49 0 -102.5 -27t-110.5 -96l-131 148
q68 91 156.5 131.5t193.5 40.5q85 0 156.5 -26.5t123.5 -73.5t81 -112t29 -143z" />
    <glyph glyph-name="four" unicode="4" 
d="M641 1276h165v-770h170v-193h-170v-313h-231v315h-487v144zM583 881l-258 -381h258v381z" />
    <glyph glyph-name="five" unicode="5" 
d="M219 1276h686v-195h-485l-17 -247q36 11 70.5 16.5t71.5 5.5q91 0 165 -30t126 -87t80 -139.5t28 -187.5q0 -100 -29.5 -183t-85 -142.5t-134 -92.5t-175.5 -33q-64 0 -123 13t-111 42t-97 75t-80 112l182 137q9 -5 13.5 -12t7.5 -16t5 -18t5 -18q21 -46 68.5 -79
t121.5 -33q43 0 80.5 15.5t65 47t43.5 78.5t16 109q0 60 -14.5 107t-40.5 79.5t-62 49t-80 16.5q-62 0 -109 -30t-92 -93l-147 63z" />
    <glyph glyph-name="six" unicode="6" 
d="M580 1303q88 0 169 -39t152 -111l-153 -166q-11 3 -16.5 9.5t-9 15t-7 19t-10.5 22.5q-20 23 -54 38t-71 15t-76 -18t-73.5 -59t-60.5 -108.5t-36 -166.5q20 20 45 37.5t52.5 30.5t56.5 20.5t57 7.5q80 0 150 -32t122.5 -90t82.5 -138t30 -176t-31.5 -179t-85.5 -143.5
t-127 -95.5t-156 -35q-101 0 -180 46.5t-133.5 130t-83.5 198.5t-29 252q0 166 34.5 299t97.5 225t150.5 141.5t193.5 49.5zM532 647q-55 0 -107.5 -33.5t-86.5 -89.5v-37q0 -61 14.5 -118t40.5 -100.5t62 -70t80 -26.5q34 0 64.5 16t53.5 46.5t36 75.5t13 104
q0 60 -15.5 104t-39.5 72.5t-54.5 42.5t-60.5 14z" />
    <glyph glyph-name="seven" unicode="7" 
d="M903 1159q-119 -272 -224 -564t-198 -595h-248q91 272 188 543t206 532h-492v201h768v-117z" />
    <glyph glyph-name="eight" unicode="8" 
d="M897 977q0 -42 -14.5 -83.5t-40 -79.5t-59.5 -71.5t-72 -58.5q50 -28 92 -65.5t72.5 -82.5t47.5 -95t17 -103q0 -80 -33 -149t-91 -119.5t-136 -79.5t-168 -29q-91 0 -169 29t-135 79t-89.5 117.5t-32.5 145.5q0 51 17 100t48.5 94t74.5 84t96 68q-38 25 -70.5 57.5
t-56 69.5t-37 77.5t-13.5 82.5q0 70 30 133t81.5 109.5t120.5 74t147 27.5q80 0 148 -26.5t118 -72t78.5 -106t28.5 -127.5zM698 340q0 37 -15 72t-42 65.5t-65.5 55.5t-86.5 42q-35 -18 -64 -42.5t-51 -54t-34 -63t-12 -69.5t15 -68.5t40.5 -56.5t60 -38.5t72.5 -14.5
q40 0 73.5 13.5t57.5 36.5t37.5 54.5t13.5 67.5zM377 975q0 -32 13.5 -60.5t36.5 -53t53.5 -45t64.5 -38.5q52 35 86.5 86t34.5 107q0 27 -11.5 52t-31.5 44t-47 30t-58 11t-57 -10.5t-44.5 -29t-29 -42.5t-10.5 -51z" />
    <glyph glyph-name="nine" unicode="9" 
d="M436 -39q-88 0 -169 39.5t-152 112.5l153 166q11 -3 16.5 -9.5t9 -15t7 -19t10.5 -22.5q20 -23 54 -38t71 -15t76 17.5t73 58.5t60 108t37 166q-20 -20 -45 -37.5t-52.5 -30.5t-56.5 -20.5t-57 -7.5q-80 0 -150 32t-122.5 90t-82.5 138t-30 176t31.5 179t85.5 143.5
t126.5 95.5t155.5 35q101 0 180 -47t134 -130t83.5 -198.5t28.5 -251.5q0 -167 -34.5 -299.5t-97 -225t-150 -141.5t-193.5 -49zM483 616q56 0 108.5 34t86.5 89v37q0 61 -14.5 118.5t-40.5 101t-62 70t-80 26.5q-35 0 -65.5 -16t-53 -46.5t-36 -76t-13.5 -103.5
q0 -61 15.5 -105t39.5 -72.5t54.5 -42.5t60.5 -14z" />
    <glyph glyph-name="colon" unicode=":" 
d="M477 891q28 0 55.5 -10t49.5 -28.5t35.5 -44t13.5 -56.5q0 -29 -12.5 -54t-33.5 -44.5t-49 -30.5t-59 -11q-30 0 -57.5 11t-48 30.5t-33 44.5t-12.5 54q0 28 12.5 53.5t33 44.5t48 30t57.5 11zM477 252q28 0 55.5 -10.5t49.5 -29.5t35.5 -44.5t13.5 -56.5q0 -28 -12 -53
t-33 -44t-49 -30t-60 -11t-59.5 11t-47.5 29.5t-32 43.5t-12 54t12.5 54.5t33 45t48 30.5t57.5 11z" />
    <glyph glyph-name="semicolon" unicode=";" 
d="M647 61q0 -81 -60 -181.5t-181 -225.5l-117 104q29 27 54 55.5t43 55.5t28 50.5t10 39.5q0 11 -9 20.5t-22 20.5q-26 22 -46.5 46.5t-20.5 59.5q0 30 11 56t31 45.5t47.5 31t61.5 11.5q33 0 63.5 -14t54.5 -39t38 -59.5t14 -76.5zM477 891q28 0 55.5 -10t49.5 -28.5
t35.5 -44t13.5 -56.5q0 -29 -12.5 -54t-33.5 -44.5t-49 -30.5t-59 -11q-30 0 -57.5 11t-48 30.5t-33 44.5t-12.5 54q0 28 12.5 53.5t33 44.5t48 30t57.5 11z" />
    <glyph glyph-name="less" unicode="&#x3c;" 
d="M954 989l-639 -327l646 -363v-219l-895 524v119l888 469v-203z" />
    <glyph glyph-name="equal" unicode="=" 
d="M84 940h866v-174h-866v174zM84 522h866v-174h-866v174z" />
    <glyph glyph-name="greater" unicode="&#x3e;" 
d="M78 989v203l893 -469v-119l-895 -524v219l643 363z" />
    <glyph glyph-name="question" unicode="?" 
d="M539 248q27 0 53.5 -11t48.5 -30t35.5 -45t13.5 -56q0 -27 -12 -52t-32.5 -44t-48 -30t-58.5 -11q-32 0 -60 11t-49 30t-33 44t-12 52q0 28 12 54t33 45.5t49 31t60 11.5zM113 1141q36 54 81.5 97.5t99 74t113 47t123.5 16.5q88 0 159 -29.5t120 -80.5t75.5 -118
t26.5 -142q0 -58 -15.5 -103.5t-43 -84.5t-66 -75t-84.5 -73q-23 -18 -36.5 -38t-20 -41.5t-8.5 -46t-2 -52.5v-113h-203v113q0 43 3 78t16.5 70.5t41.5 74t78 88.5q62 62 86.5 112.5t24.5 100.5q0 37 -12 69.5t-33.5 56.5t-51 38t-63.5 14q-38 0 -72.5 -14.5t-66.5 -40.5
t-61.5 -62.5t-55.5 -81.5z" />
    <glyph glyph-name="at" unicode="@" 
d="M918 70q-73 -56 -149.5 -77.5t-166.5 -21.5q-112 0 -212 43t-175.5 128t-119.5 212t-44 295q0 167 44 291t115.5 206t162 122.5t184.5 40.5t170 -31.5t130 -97t83 -166t29 -238.5v-442h-187v63q-26 -32 -71.5 -55t-98.5 -23q-59 0 -109.5 21.5t-88 59.5t-59 89.5
t-21.5 112.5q0 76 25 136.5t78 102.5t135 64.5t196 24.5q-5 48 -22 88t-45.5 68.5t-66.5 44.5t-83 16q-58 0 -113.5 -30.5t-99.5 -92t-71 -154.5t-27 -219q0 -123 30.5 -219t82 -161.5t119.5 -99.5t142 -34q50 0 107.5 17.5t114.5 66.5zM776 776q-64 -1 -110.5 -14.5
t-76.5 -35.5t-44.5 -50.5t-14.5 -59.5q0 -61 29.5 -98t77.5 -37q42 0 68.5 17.5t42.5 54t22 92t6 131.5z" />
    <glyph glyph-name="A" unicode="A" 
d="M0 0l426 1298h133l467 -1298h-240l-116 330h-334l-100 -330h-236zM629 489l-133 424l-125 -424h258z" />
    <glyph glyph-name="B" unicode="B" 
d="M82 1276h387q116 0 200 -24t139 -67.5t81 -104.5t26 -134q0 -38 -10.5 -76t-31 -72.5t-49 -64t-64.5 -49.5q45 -21 82.5 -55t64.5 -75t42.5 -87t15.5 -92q0 -84 -29.5 -153.5t-91 -118.5t-155.5 -76t-222 -27h-385v1276zM311 1085v-307h140q65 0 109.5 12t72 33
t39.5 49.5t12 61.5q0 30 -13 57.5t-39 48t-66.5 33t-94.5 12.5h-160zM311 592v-397h178q54 0 97.5 9t74.5 31t47.5 57.5t16.5 88.5q0 45 -14.5 83.5t-46 67t-83 44.5t-124.5 16h-146z" />
    <glyph glyph-name="C" unicode="C" 
d="M791 915q-9 3 -12 9t-3.5 14.5t-1.5 19.5t-6 23q-29 66 -78 103.5t-125 37.5q-61 0 -110.5 -34.5t-84.5 -97.5t-54 -152t-19 -197q0 -105 20.5 -193.5t57.5 -153.5t89 -101.5t114 -36.5q74 0 130 45.5t101 124.5l174 -113q-72 -124 -175 -187t-224 -63q-113 0 -209 40.5
t-166.5 123.5t-110 208.5t-39.5 295.5q0 125 21.5 224.5t59 174.5t87.5 128t106.5 86.5t116.5 49t117 15.5q72 0 138 -21t121.5 -59.5t99 -92t71.5 -118.5z" />
    <glyph glyph-name="D" unicode="D" 
d="M90 1276h330q85 0 150 -12t115 -34.5t88.5 -55.5t70.5 -76q65 -88 98 -205.5t33 -263.5q0 -145 -32.5 -261.5t-103 -198t-180.5 -125.5t-264 -44h-305v1276zM313 1085v-905h78q181 0 267.5 114.5t86.5 328.5q0 108 -18.5 193.5t-59 145.5t-103.5 91.5t-152 31.5h-99z" />
    <glyph glyph-name="E" unicode="E" 
d="M115 1276h831v-197h-608v-315h504v-201h-504v-366h604v-197h-827v1276z" />
    <glyph glyph-name="F" unicode="F" 
d="M139 1276h793v-195h-563v-299h454v-192h-454v-590h-230v1276z" />
    <glyph glyph-name="G" unicode="G" 
d="M813 913q-18 8 -29 15.5t-17 15.5t-9.5 16t-7.5 17q-12 28 -32.5 52.5t-46.5 43.5t-57 30t-65 11q-51 0 -101 -24.5t-89.5 -79.5t-64 -142.5t-24.5 -214.5q0 -116 21 -208t59 -155.5t89.5 -97.5t113.5 -34q46 0 94 11t88 42v240h-217v194h434v-536q-92 -77 -189.5 -111.5
t-209.5 -34.5q-125 0 -222 49.5t-163 139t-100.5 213.5t-34.5 274q0 134 25.5 236t67.5 176.5t96.5 124t112 79t114.5 42t104 12.5q65 0 124.5 -18t111.5 -51t94 -79t73 -102z" />
    <glyph glyph-name="H" unicode="H" 
d="M936 0h-236v571h-376v-571h-236v1276h250q4 -4 4 -10q0 -4 -2.5 -8.5t-5.5 -11.5t-6 -17t-4 -25v-442h376v514h250q4 -4 4 -10q0 -4 -2.5 -8.5t-5.5 -11.5t-6 -17t-4 -25v-1204z" />
    <glyph glyph-name="I" unicode="I" 
d="M162 1276h712v-191h-247v-897h258v-188h-735v190h247v895h-235v191z" />
    <glyph glyph-name="J" unicode="J" 
d="M291 1276h659v-191h-192v-673q0 -117 -29 -201.5t-79 -139t-116 -80.5t-141 -26q-103 0 -189.5 45t-152.5 133l146 176q10 -3 15.5 -10.5t9.5 -18t8.5 -23t11.5 -25.5q12 -16 24.5 -30.5t28.5 -25.5t37.5 -17.5t50.5 -6.5q75 0 110 64.5t35 211.5v647h-237v191z" />
    <glyph glyph-name="K" unicode="K" 
d="M324 0h-236v1276h250q4 -4 4 -10q0 -4 -2.5 -8.5t-5.5 -11.5t-6 -17t-4 -25v-416l434 504q34 -8 65 -12t54 -4h141l-475 -543l493 -731l-278 -12l-379 592l-55 -60v-522z" />
    <glyph glyph-name="L" unicode="L" 
d="M940 193v-193h-815v1276h250q4 -4 4 -10q0 -8 -7.5 -19.5t-11.5 -42.5v-1011h580z" />
    <glyph glyph-name="M" unicode="M" 
d="M61 1276h242l215 -600l213 602h244v-1278h-207v926l-178 -482h-152l-172 482v-926h-205v1276z" />
    <glyph glyph-name="N" unicode="N" 
d="M958 0h-253l-433 965v-965h-206v1276h280l406 -914v914h221q4 -4 4 -10q0 -8 -7.5 -19.5t-11.5 -42.5v-1204z" />
    <glyph glyph-name="O" unicode="O" 
d="M514 -37q-113 0 -202 50.5t-150.5 141t-94 215t-32.5 271.5q0 148 33.5 271t96 211t151.5 137t200 49q96 0 182 -41t150.5 -124t102.5 -209t38 -296q0 -123 -19 -221t-52 -173t-78 -128.5t-98 -87.5t-111 -50t-117 -16zM272 653q0 -117 18 -207t50.5 -151t77 -92
t98.5 -31q46 0 88.5 23t74.5 78t51.5 145.5t19.5 224.5q0 128 -21 216t-54 142.5t-74.5 78.5t-82.5 24q-49 0 -93.5 -22t-78.5 -74t-54 -138.5t-20 -216.5z" />
    <glyph glyph-name="P" unicode="P" 
d="M102 1276h433q114 0 195 -30.5t133.5 -83t77 -122t24.5 -147.5t-24 -146.5t-75 -119.5t-130.5 -81t-190.5 -30h-209v-516h-234v1276zM336 1073v-362h192q53 0 91 13.5t62.5 37t36 55.5t11.5 70q0 40 -12 74t-36.5 59t-62 39t-88.5 14h-194z" />
    <glyph glyph-name="Q" unicode="Q" 
d="M401 -23q-87 23 -155.5 81.5t-115 145.5t-71 198t-24.5 239q0 148 33.5 271t96 211t151.5 137t200 49q96 0 182 -41t150.5 -124t102.5 -209t38 -296q0 -157 -30 -273t-80.5 -196t-117.5 -127t-140 -66q3 -35 24.5 -57t65.5 -20l202 8l-6 -207h-164q-173 0 -255 64.5
t-87 211.5zM272 653q0 -117 18 -207t50.5 -151t77 -92t98.5 -31q46 0 88.5 23t74.5 78t51.5 145.5t19.5 224.5q0 128 -21 216t-54 142.5t-74.5 78.5t-82.5 24q-49 0 -93.5 -22t-78.5 -74t-54 -138.5t-20 -216.5z" />
    <glyph glyph-name="R" unicode="R" 
d="M96 1276h404q119 0 203.5 -27.5t138.5 -77.5t79 -120t25 -156q0 -52 -17.5 -105t-49 -99.5t-77 -82t-100.5 -53.5l299 -555h-258l-264 528h-149v-528h-234v1276zM330 1073v-350h184q51 0 88.5 12.5t61.5 35t35.5 54.5t11.5 70q0 90 -47 134t-150 44h-184z" />
    <glyph glyph-name="S" unicode="S" 
d="M780 946q-15 1 -21.5 6t-10 13t-5.5 17.5t-8 18.5q-34 51 -95 85t-144 34q-36 0 -65.5 -11.5t-50 -31t-31.5 -45t-11 -53.5q0 -33 11.5 -62.5t42 -58t83 -57.5t133.5 -62q97 -39 161.5 -81.5t103 -90t54 -101t15.5 -114.5q0 -72 -24.5 -142t-79 -124.5t-140.5 -88.5
t-209 -34q-130 0 -237 49.5t-195 143.5l117 204q12 -3 18.5 -9t11.5 -14t10 -18t13 -22q21 -26 48.5 -51t62.5 -44t77 -30.5t93 -11.5q94 0 147.5 43.5t53.5 136.5q0 29 -12 55.5t-40.5 52t-76.5 52t-121 55.5q-96 39 -164 82t-111.5 92t-63.5 104t-20 117q0 75 31 140
t86.5 114t132 77t168.5 28q116 0 218 -49t173 -142z" />
    <glyph glyph-name="T" unicode="T" 
d="M41 1276h940v-199h-360v-1077h-234v1077h-346v199z" />
    <glyph glyph-name="U" unicode="U" 
d="M76 1276h243q4 -3 4.5 -5t0.5 -5q0 -4 -2.5 -8.5t-5.5 -11.5t-6.5 -17t-4.5 -25v-755q0 -66 10 -119.5t34 -90.5t64 -57t99 -20q61 0 101.5 20.5t65 58.5t34.5 92t10 122v821h225v-819q0 -125 -31 -216.5t-88 -151.5t-138 -89t-181 -29q-107 0 -188 33t-136 95t-82.5 151
t-27.5 201v825z" />
    <glyph glyph-name="V" unicode="V" 
d="M20 1276h242l268 -905l254 905h236l-410 -1276h-176z" />
    <glyph glyph-name="W" unicode="W" 
d="M12 1276h224l73 -842l150 737h147l150 -731l53 836h213l-152 -1276h-180l-168 776l-170 -776h-184z" />
    <glyph glyph-name="X" unicode="X" 
d="M733 1276h238l-318 -623l359 -653h-258l-234 438l-227 -438h-250l344 651l-340 625h250l221 -418z" />
    <glyph glyph-name="Y" unicode="Y" 
d="M18 1276h256l263 -516l233 516h248l-365 -774v-502h-241v504z" />
    <glyph glyph-name="Z" unicode="Z" 
d="M106 1276h838v-139l-567 -940h491q22 3 35.5 8t24 10t21 8.5t26.5 3.5v-227h-891v139l578 938h-556v199z" />
    <glyph glyph-name="bracketleft" unicode="[" 
d="M242 1370h635v-190h-420v-1180h420v-184h-635v1554z" />
    <glyph glyph-name="backslash" unicode="\" 
d="M922 -10l-179 -86l-639 1376l179 94z" />
    <glyph glyph-name="bracketright" unicode="]" 
d="M780 1370v-1554h-633v184h418v1180h-415v190h630z" />
    <glyph glyph-name="asciicircum" unicode="^" 
d="M158 760l331 520h74l293 -520l-168 -80l-170 354l-192 -354z" />
    <glyph glyph-name="underscore" unicode="_" 
d="M59 -16h906v-191h-906v191z" />
    <glyph glyph-name="a" unicode="a" 
d="M154 821q148 156 362 156q91 0 163 -23t122 -71.5t77 -123t27 -177.5v-582h-219v86q-54 -51 -128.5 -81t-149.5 -30q-84 0 -145.5 22.5t-101.5 60.5t-59.5 89t-19.5 107q0 74 31.5 135.5t92.5 106t150.5 69.5t206.5 25h121q-2 109 -44 158t-132 49q-117 0 -238 -127z
M606 418q-90 2 -148 -10.5t-91 -34.5t-45.5 -50.5t-12.5 -56.5q0 -24 11 -45t30 -36.5t44.5 -25t54.5 -9.5q47 0 84.5 16.5t65.5 39.5t47 48t28 43q8 15 12 44.5t4 74.5z" />
    <glyph glyph-name="b" unicode="b" 
d="M102 1382h258q0 -12 -4 -19t-8.5 -12.5t-9.5 -11.5t-6 -16v-449q45 50 103 76.5t118 26.5q81 0 154 -30t128.5 -90t88 -149.5t32.5 -209.5q0 -132 -35.5 -231.5t-93.5 -165.5t-132 -99t-150 -33q-72 0 -138 31.5t-114 91.5l-31 -92h-160v1382zM330 489q0 -89 13 -151.5
t37 -102t58.5 -57.5t77.5 -18q34 0 71 16t68 52t50.5 94.5t19.5 144.5q0 91 -19.5 156.5t-56.5 105.5q-28 31 -59.5 46.5t-79.5 15.5q-56 0 -91 -24.5t-54.5 -66.5t-27 -96.5t-7.5 -114.5z" />
    <glyph glyph-name="c" unicode="c" 
d="M799 621q-9 2 -13 7.5t-6 12.5t-3.5 15.5t-4.5 17.5q-28 48 -80.5 80t-128.5 32q-52 0 -98 -22.5t-80 -63t-54 -96.5t-20 -123q0 -68 18.5 -125.5t52 -100.5t80 -67t103.5 -24q28 0 58.5 6.5t61.5 21.5t61 39.5t59 59.5l133 -154q-81 -91 -178 -130.5t-205 -39.5
q-105 0 -192.5 38t-150.5 105t-98.5 159t-35.5 200q0 107 35 199.5t99 161t153.5 108t197.5 39.5q60 0 116 -12t105.5 -35t90.5 -57.5t71 -79.5z" />
    <glyph glyph-name="d" unicode="d" 
d="M918 115q0 -25 5 -54.5t13 -60.5h-217q-13 9 -17 27t-4 32v29q-16 -29 -42.5 -51t-57.5 -37t-64.5 -23t-64.5 -8q-84 0 -158 30.5t-129.5 92t-88 154t-32.5 217.5q0 121 33 216.5t89 161.5t129.5 101t154.5 35q28 0 58 -7t59.5 -19.5t56 -30.5t47.5 -39v501h258
q0 -11 -4 -18t-8.5 -13t-9.5 -12.5t-6 -15.5v-1208zM690 489q0 60 -8 114.5t-28 96.5t-55.5 66.5t-90.5 24.5q-48 0 -79.5 -15.5t-59.5 -46.5q-76 -81 -76 -262q0 -86 19.5 -144.5t50.5 -94.5t67.5 -52t71.5 -16q43 0 77.5 18t59 57.5t38 102t13.5 151.5z" />
    <glyph glyph-name="e" unicode="e" 
d="M528 977q85 0 159 -30t129.5 -88.5t87.5 -146t32 -202.5q0 -25 -2 -49t-4 -47h-627q8 -69 32 -118.5t58 -82t75.5 -48t84.5 -15.5q65 0 127.5 29.5t107.5 86.5l127 -127q-145 -172 -362 -172q-103 0 -190.5 34t-151 98t-99.5 156.5t-36 209.5q0 119 34 214t94.5 161
t143 101.5t180.5 35.5zM707 582q0 45 -13.5 85.5t-38 71t-60 48.5t-79.5 18q-42 0 -77.5 -16t-62 -45t-43 -70t-22.5 -92h396z" />
    <glyph glyph-name="f" unicode="f" 
d="M737 1399q191 0 318 -156l-94 -184q-16 0 -21.5 10t-11.5 33q-12 18 -30.5 38t-43 37t-55 28.5t-64.5 11.5q-86 0 -128 -64t-42 -199v-49h293v-182h-293v-723h-223v723h-207v182h207v68q0 106 31.5 186t85.5 133.5t125.5 80t152.5 26.5z" />
    <glyph glyph-name="g" unicode="g" 
d="M475 809q-31 0 -57.5 -11t-46.5 -31.5t-31.5 -50t-11.5 -67.5q0 -32 10.5 -60t29.5 -49t46 -33.5t61 -12.5q35 0 63 12.5t47.5 33.5t29.5 49t10 60t-10 61t-29.5 51t-47.5 35t-63 13zM479 985q125 0 213 -67q45 30 97 45.5t114 15.5h66l30 -195q-19 3 -37.5 5t-33 4
t-24.5 3t-11 1q-43 0 -88 -17q14 -32 23.5 -65.5t9.5 -67.5q0 -68 -28.5 -128t-77.5 -105t-114.5 -71t-140.5 -26q-20 0 -41 2t-43 9q-28 -19 -44.5 -37t-16.5 -41q0 -28 29 -37.5t75 -9.5q35 0 73 3t69 3q101 0 171.5 -19t114 -53.5t63 -81.5t19.5 -104q0 -59 -27.5 -113.5
t-82.5 -97.5t-138 -68.5t-194 -25.5q-116 0 -199 19.5t-136 53t-78 78t-25 94.5q0 25 9 51.5t25.5 51.5t39.5 47t50 39q-35 25 -48 59.5t-13 69.5q0 48 33 97t84 91q-31 19 -55 47t-41 60t-26 67t-9 70q0 72 30.5 135t81.5 109.5t116.5 73t135.5 26.5zM616 20q-74 0 -137 1
t-131 6q-37 -22 -54.5 -51.5t-17.5 -55.5q0 -29 18.5 -48.5t50.5 -32t74 -18t89 -5.5q49 0 90 8.5t71 24t47 37t19 48.5q-3 38 -30 62t-89 24z" />
    <glyph glyph-name="h" unicode="h" 
d="M123 0v1382h260q0 -12 -4 -19t-9 -12.5t-10 -11.5t-6 -16v-465q50 54 116 86.5t134 32.5q73 0 132 -22t100 -69.5t63.5 -123t22.5 -182.5v-580h-226v578q0 55 -10 95t-28 65.5t-43 37.5t-56 12q-43 0 -80.5 -17t-65 -48t-43.5 -74.5t-16 -95.5v-553h-231z" />
    <glyph glyph-name="i" unicode="i" 
d="M545 1384q29 0 55 -10.5t45.5 -28t31 -41.5t11.5 -51t-11.5 -51t-31 -42t-45.5 -28t-55 -10t-55.5 10t-46 28t-31 42t-11.5 51q0 24 9 47.5t27 42t45 30t63 11.5zM207 956h448v-778h211v-178h-669v178h231v600h-221v178z" />
    <glyph glyph-name="j" unicode="j" 
d="M203 956h563v-909q0 -108 -30.5 -185.5t-83 -127t-123.5 -73t-152 -23.5q-97 0 -174.5 40.5t-143.5 118.5l142 187q10 -4 13.5 -9t6 -13t6 -18.5t13.5 -25.5q10 -14 25 -29t33.5 -28t40 -21t44.5 -8q31 0 59 11.5t48.5 36.5t32.5 64t12 95v731h-332v186zM651 1393
q29 0 55.5 -10.5t46.5 -29t32 -43.5t12 -53q0 -27 -12 -51.5t-32 -43t-46.5 -29.5t-55.5 -11t-55.5 11t-46.5 29.5t-31.5 43t-11.5 51.5q0 25 9.5 49.5t28.5 44t45.5 31t61.5 11.5z" />
    <glyph glyph-name="k" unicode="k" 
d="M123 1382h260q0 -12 -4 -19t-9 -12t-10 -11t-6 -15v-721l367 363q73 -17 117 -17h149l-391 -377q51 -61 107 -136.5t112.5 -152.5t111 -150.5t101.5 -131.5l-280 -10l-316 440l-78 -74v-358h-231v1382z" />
    <glyph glyph-name="l" unicode="l" 
d="M150 1382h479v-1204h262v-178h-754v178h262v1026h-249v178z" />
    <glyph glyph-name="n" unicode="n" 
d="M123 0v956h231v-98q50 54 116 86.5t134 32.5q72 0 131 -22t100.5 -69.5t64 -123t22.5 -182.5v-580h-226v578q0 55 -10 95t-28 65.5t-43 37.5t-56 12q-43 0 -80.5 -17t-65 -48t-43.5 -74.5t-16 -95.5v-553h-231z" />
    <glyph glyph-name="o" unicode="o" 
d="M520 977q93 0 174 -34t141.5 -98.5t95 -158.5t34.5 -213t-34 -213t-93.5 -159t-141.5 -99.5t-178 -34.5t-179.5 37t-146 104t-98 159t-35.5 202q0 109 36.5 202t99.5 161t146.5 106.5t178.5 38.5zM737 469q0 78 -16.5 138t-46.5 101.5t-71 63t-89 21.5q-49 0 -89.5 -21.5
t-69 -62.5t-44.5 -99.5t-16 -132.5t15.5 -133.5t44.5 -101.5t70.5 -65t92.5 -23q100 0 159.5 81t59.5 234z" />
    <glyph glyph-name="p" unicode="p" 
d="M342 487q0 -89 13 -151.5t37 -102t58.5 -57.5t77.5 -18q35 0 72 16t67.5 52t50 94.5t19.5 144.5q0 155 -55.5 239t-159.5 84q-55 0 -90 -24.5t-55 -66t-27.5 -96t-7.5 -114.5zM111 956h221v-98q23 32 51 54.5t58 37t60.5 21t59.5 6.5q84 0 157.5 -32.5t129 -97.5
t87.5 -163.5t32 -230.5q0 -120 -33 -210.5t-88.5 -151.5t-128.5 -91.5t-154 -30.5q-60 0 -120 25.5t-101 68.5v-405h-229z" />
    <glyph glyph-name="q" unicode="q" 
d="M465 977q29 0 61.5 -7t63.5 -20t58.5 -31t45.5 -40v77h221v-1298h-229v408q-20 -23 -46.5 -41.5t-56 -31.5t-60.5 -19.5t-60 -6.5q-84 0 -157.5 37.5t-128 105.5t-86.5 162t-32 207t31 205t85 157t128.5 100.5t161.5 35.5zM487 791q-40 0 -75.5 -20.5t-62.5 -59.5
t-42.5 -95.5t-15.5 -128.5q0 -73 16 -133t44 -102.5t65.5 -66t79.5 -23.5q88 0 137 79t49 240q0 82 -13.5 141t-39 96.5t-61.5 55t-81 17.5z" />
    <glyph glyph-name="r" unicode="r" 
d="M182 956h236v-104q23 26 52 49t62 40t69.5 26.5t74.5 9.5q81 0 154.5 -25.5t130.5 -79.5l-107 -223q-50 69 -96 101t-92 32q-53 0 -98.5 -22.5t-80 -61t-54 -90t-19.5 -108.5v-500h-232v956z" />
    <glyph glyph-name="s" unicode="s" 
d="M799 645q-8 0 -12.5 4.5t-7 11t-4.5 14t-5 13.5q-18 22 -45 42.5t-59.5 35.5t-69 24t-72.5 9q-31 0 -59 -4.5t-49.5 -14.5t-34 -26t-12.5 -39q0 -26 13.5 -43.5t40.5 -32t68 -27.5t97 -28q171 -48 251.5 -123t80.5 -172q0 -65 -29 -123t-82 -102.5t-128.5 -70.5
t-168.5 -26q-121 0 -223.5 38.5t-192.5 123.5l119 215q12 -2 18 -14.5t15 -34.5q16 -26 46 -50.5t67 -44.5t77.5 -32t77.5 -12q82 0 127 23.5t45 70.5q0 24 -10 42t-31.5 33.5t-56.5 29t-86 28.5q-28 8 -55.5 16t-55.5 19q-56 21 -100 47.5t-74.5 59.5t-46.5 74.5t-16 92.5
t28.5 102t78.5 91.5t119.5 66t152.5 25.5q109 0 202.5 -39t171.5 -127z" />
    <glyph glyph-name="t" unicode="t" 
d="M348 1180l254 43q0 -26 -8 -43t-14 -39l-21 -185h289v-186h-297q-3 -74 -9.5 -153t-6.5 -156q0 -78 3.5 -134t15 -91t33 -51.5t56.5 -16.5q34 0 90 29.5t127 83.5l72 -189q-84 -60 -164.5 -92.5t-159.5 -32.5q-80 0 -137.5 22.5t-95 70t-55 121.5t-17.5 177q0 69 4 170.5
t15 241.5h-207v186h219z" />
    <glyph glyph-name="u" unicode="u" 
d="M903 956v-841q0 -26 5.5 -55t13.5 -60h-222q-12 9 -16 27t-4 32v31q-21 -31 -51 -55t-65 -41t-71.5 -26t-70.5 -9q-75 0 -134 22t-100 70t-62.5 124t-21.5 183v598h226v-598q0 -110 37.5 -160.5t99.5 -50.5q43 0 80.5 17.5t65 48.5t43.5 74.5t16 95.5v573h231z" />
    <glyph glyph-name="v" unicode="v" 
d="M51 956h277q0 -11 -2.5 -18.5t-5 -14.5t-5 -14.5t-2.5 -17.5l217 -612l93 270q36 105 67 212.5t49 194.5h219q-24 -103 -59.5 -214.5t-83.5 -223.5l-213 -518h-188z" />
    <glyph glyph-name="w" unicode="w" 
d="M16 956h254q0 -11 -3.5 -17.5t-7.5 -11.5t-7.5 -10.5t-3.5 -15.5v-10.5t2 -11.5l88 -598l119 565h141l135 -563q16 104 25.5 198.5t15 174t7 140t1.5 97.5v63h217q-13 -110 -29 -232.5t-35 -247t-40 -246.5t-43 -230h-203l-125 532l-118 -532h-209z" />
    <glyph glyph-name="x" unicode="x" 
d="M694 956h248l-305 -464q127 -182 216 -310t128 -182h-262l-209 324l-197 -324h-262l330 485q-290 420 -326 471h258l195 -309z" />
    <glyph glyph-name="y" unicode="y" 
d="M590 -104q-26 -69 -60 -118t-74 -80t-85.5 -45.5t-94.5 -14.5q-141 0 -253 108l114 197q12 -6 17 -13t8 -16t6 -19t10 -22q14 -25 34.5 -37t51.5 -12q22 0 42 9t39.5 31t38.5 58t38 90l-359 944h281q0 -11 -2 -18.5t-5 -14.5t-5 -14.5t-2 -17.5l213 -594l92 252
q19 51 36.5 105t32.5 107t27 102.5t21 92.5h219q-25 -103 -62 -213.5t-82 -224.5z" />
    <glyph glyph-name="z" unicode="z" 
d="M127 936h764v-143l-490 -600h435q16 1 28 6t23.5 10.5t22.5 9.5t26 4v-223h-848v143l496 598h-457v195z" />
    <glyph glyph-name="braceleft" unicode="{" 
d="M291 53q0 16 1 42.5t2 55.5t2 57t1 48q0 51 -8 84t-23 52.5t-37.5 27.5t-50.5 8h-86v182h84q63 0 94 38.5t31 125.5q0 12 -0.5 35.5t-1.5 49t-1.5 47.5t-0.5 30q0 183 98 276t293 93h166v-185h-201q-66 0 -97.5 -41t-31.5 -123q0 -14 0.5 -36.5t1.5 -46.5t1.5 -45
t0.5 -31q0 -91 -38.5 -162t-106.5 -115q31 -20 56.5 -49.5t44.5 -67t29.5 -82t10.5 -94.5q0 -11 -0.5 -38.5t-1.5 -56t-1.5 -52t-0.5 -27.5q0 -105 44 -151.5t145 -46.5h143v-181h-115q-21 0 -62.5 2.5t-89 10t-93.5 21t-76 36.5q-63 48 -94 127.5t-31 181.5z" />
    <glyph glyph-name="bar" unicode="|" 
d="M403 1335h220v-1644h-220v1644z" />
    <glyph glyph-name="braceright" unicode="}" 
d="M735 53q0 -102 -31 -181.5t-94 -127.5q-30 -23 -76 -36.5t-93.5 -21t-89 -10t-62.5 -2.5h-115v181h143q101 0 145 46.5t44 151.5q0 4 -0.5 27.5t-1.5 52t-1.5 56t-0.5 38.5q0 50 10.5 94.5t29 82t44.5 67t57 49.5q-68 44 -106.5 115t-38.5 162q0 10 0.5 31t1.5 45
t1.5 46.5t0.5 36.5q0 82 -31.5 123t-97.5 41h-201v185h166q195 0 293 -93t98 -276q0 -8 -0.5 -30t-1.5 -47.5t-1.5 -49t-0.5 -35.5q0 -87 31 -125.5t94 -38.5h84v-182h-86q-29 0 -51 -8t-37 -27.5t-23 -52.5t-8 -84q0 -20 1 -48t2 -57t2 -55.5t1 -42.5z" />
    <glyph glyph-name="asciitilde" unicode="~" 
d="M55 776q31 50 70.5 91t81.5 70.5t84 45.5t78 16q31 0 56.5 -6.5t49 -18.5t46.5 -29t50 -38q28 -21 54 -38t49 -17q21 0 38.5 8t36 25t39.5 43.5t48 64.5l153 -123q-28 -45 -62.5 -85t-74 -70.5t-82 -48t-86.5 -17.5q-50 0 -90.5 18t-69.5 40q-21 15 -40 31t-37 28.5
t-37.5 20.5t-42.5 8q-31 0 -67.5 -31t-78.5 -100z" />
    <glyph glyph-name="nonbreakingspace" unicode="&#xa0;" 
 />
    <glyph glyph-name="exclamdown" unicode="&#xa1;" 
d="M604 1122q-47 -45 -115 -45q-32 0 -60.5 12t-50 33t-34 48t-12.5 57q0 31 12.5 57.5t34 46.5t50 31.5t60.5 11.5t61.5 -11.5t52 -32t35.5 -47t13 -56.5q0 -29 -12 -54.5t-35 -50.5zM494 -20q-69 0 -106.5 45.5t-37.5 130.5q0 22 2.5 52.5t6.5 63t7 64t5 55.5l28 557h185
l37 -557q1 -23 4 -52t5.5 -59t4.5 -57.5t2 -46.5q0 -104 -38.5 -150t-104.5 -46z" />
    <glyph glyph-name="cent" unicode="&#xa2;" 
d="M805 696q-9 2 -13 7.5t-6 13t-3.5 16t-4.5 17.5q-15 24 -36.5 45t-49.5 36l-76 -587q48 8 98.5 37t96.5 86l133 -154q-75 -85 -165 -125t-189 -45l-27 -205l-201 25l27 209q-69 26 -126 71.5t-97.5 106.5t-63 135.5t-22.5 159.5q0 99 31 186t88 154t136 110t175 54
l29 229l221 -21q0 -17 -5.5 -29.5t-13.5 -35.5l-22 -160q135 -36 221 -155zM313 557q0 -81 25 -147t78 -111l67 547q-39 -14 -70.5 -41.5t-53.5 -65t-34 -84t-12 -98.5z" />
    <glyph glyph-name="sterling" unicode="&#xa3;" 
d="M750 977q-30 12 -43.5 33t-26 42t-33 36.5t-63.5 15.5q-31 0 -59.5 -12.5t-50.5 -38t-35 -63.5t-13 -89q0 -17 1.5 -37t6.5 -51h205v-182h-162q8 -42 11.5 -88t3.5 -78q0 -28 -2.5 -59t-9 -62t-18.5 -59t-30 -49q9 2 23.5 2h29.5q31 0 66.5 -10.5t71 -22.5t67 -22.5
t53.5 -10.5q16 0 32.5 5t34.5 15.5t39.5 26.5t47.5 37l86 -176q-133 -109 -252 -109q-34 0 -80.5 13.5t-96 29.5t-95.5 29.5t-78 13.5q-34 0 -94.5 -23.5t-147.5 -68.5l-82 182q39 15 66.5 28.5t46 25.5t29 23t16.5 22q28 46 42.5 101.5t14.5 115.5q0 15 -1 34.5t-3 42
t-5.5 46t-8.5 45.5h-133v182h92q-5 25 -6.5 45.5t-1.5 40.5q0 85 29.5 156.5t80.5 123t120 80.5t149 29q91 0 164 -35t139 -106z" />
    <glyph glyph-name="currency" unicode="&#xa4;" 
d="M106 987l134 121l110 -111q37 19 79.5 30t84.5 11t82.5 -10t77.5 -29l110 109l134 -121l-113 -110q26 -41 36.5 -83t10.5 -85q0 -45 -11 -86.5t-36 -81.5l113 -111l-134 -121l-108 109q-38 -22 -78.5 -30.5t-83.5 -8.5q-46 0 -87 9.5t-79 31.5l-108 -111l-134 121
l113 115q-22 38 -33.5 80t-11.5 84q0 43 10 83t35 82zM360 707q0 -35 11.5 -65t32 -52.5t48.5 -35.5t60 -13t60 13t48.5 35.5t32 52.5t11.5 65q0 34 -11.5 64.5t-32 53.5t-48.5 36t-60 13t-60 -13t-48.5 -36t-32 -53.5t-11.5 -64.5z" />
    <glyph glyph-name="yen" unicode="&#xa5;" 
d="M152 592h258l-375 684h254l239 -483l222 483h239l-350 -684h252v-182h-252v-62h252v-180h-252v-168h-223v168h-264v180h264v62h-264v182z" />
    <glyph glyph-name="brokenbar" unicode="&#xa6;" 
d="M403 1335h220v-778h-220v778zM623 -309h-220v755h220v-755z" />
    <glyph glyph-name="section" unicode="&#xa7;" 
d="M705 1020q-19 4 -24 14t-9 41q-5 25 -18.5 47.5t-33 39.5t-45 27.5t-53.5 10.5q-26 0 -48 -9.5t-38.5 -25.5t-25.5 -37.5t-9 -44.5q0 -29 13 -52t40.5 -43t70.5 -39t102 -40q42 -15 86 -39.5t79.5 -60t58.5 -80.5t23 -100q0 -32 -10 -62.5t-27.5 -57.5t-41.5 -48.5
t-52 -34.5q54 -42 83.5 -95.5t29.5 -113.5q0 -71 -27 -132t-76 -106t-116.5 -70.5t-149.5 -25.5q-112 0 -209 51.5t-169 151.5l141 166q15 0 20.5 -7t12.5 -26q6 -21 25 -45t46 -44t60 -33t67 -13q36 0 64 10t46.5 26.5t28 38t9.5 44.5q0 25 -8.5 46t-30.5 39t-58.5 34.5
t-91.5 33.5q-81 25 -138 56t-93 67.5t-52 79t-16 90.5q0 29 11.5 61t32 61.5t48.5 54t62 38.5q-28 16 -51 40t-39.5 51.5t-25.5 58t-9 59.5q0 61 26 118t73 100t112 69t143 26q57 0 108.5 -16t95.5 -44.5t81 -69t65 -89.5zM412 778q-9 -5 -16.5 -15t-12.5 -22.5t-7.5 -27
t-2.5 -27.5q0 -48 40 -88t122 -66q10 -3 25 -6.5t50 -15.5q14 12 21.5 37t7.5 51q0 48 -38.5 88.5t-123.5 69.5z" />
    <glyph glyph-name="dieresis" unicode="&#xa8;" 
d="M326 1386q27 0 52.5 -9.5t45.5 -27t32.5 -42t12.5 -54.5q0 -27 -11.5 -50.5t-31 -41.5t-45.5 -28.5t-55 -10.5t-55 10.5t-45.5 28.5t-30.5 41.5t-11 50.5t11 51t30.5 42.5t45.5 29t55 10.5zM702 1386q26 0 51.5 -9.5t45.5 -27t32.5 -42t12.5 -54.5q0 -27 -11 -50.5
t-30.5 -41.5t-45.5 -28.5t-55 -10.5t-54.5 10t-45 28t-30.5 42t-11 51q0 28 11 52t30.5 42t45 28.5t54.5 10.5z" />
    <glyph glyph-name="copyright" unicode="&#xa9;" 
d="M643 596q-8 2 -10.5 8t-4 14t-2 17t-3.5 18q-11 32 -38.5 52t-64.5 20q-21 0 -41.5 -7.5t-37.5 -25t-27.5 -46.5t-10.5 -71q0 -78 30 -128t93 -50q47 0 76 26t49 77l144 -92q-44 -78 -116.5 -123t-160.5 -45q-68 0 -123.5 26.5t-94.5 71t-60 103.5t-21 124q0 67 23 124.5
t62 99.5t90.5 66t109.5 24q64 0 114 -17t87.5 -47.5t61.5 -72t36 -89.5zM868 193q-72 -76 -164 -116t-198 -40q-104 0 -194.5 41.5t-157.5 112.5t-105.5 166t-38.5 202q0 108 40 203t108.5 166t160 112t195.5 41q102 0 193.5 -41t160.5 -112t109.5 -166t40.5 -203
q0 -212 -150 -366zM516 967q-75 0 -141 -32t-114.5 -87t-76.5 -129.5t-28 -159.5q0 -84 28 -157t76.5 -128t114.5 -86.5t141 -31.5q74 0 139.5 32.5t115 88t78 129t28.5 155.5t-28 156t-77 129.5t-115 88t-141 32.5z" />
    <glyph glyph-name="ordfeminine" unicode="&#xaa;" 
d="M449 985q57 5 98.5 5.5t73.5 0.5q0 63 -27 92t-78 29q-49 0 -92.5 -25t-89.5 -77l-113 133q69 70 143 101.5t164 31.5q140 0 218.5 -69.5t78.5 -205.5v-466h-202v51q-15 -16 -36 -29.5t-45 -23t-49 -14.5t-47 -5q-57 0 -105.5 17t-84 48t-55 73t-19.5 93
q0 101 69.5 161.5t197.5 78.5zM627 842q-68 0 -113.5 -5t-72.5 -16t-38.5 -29t-11.5 -44q0 -13 5.5 -26t17 -23t28 -16.5t37.5 -6.5q25 0 51 7t47.5 26t35.5 51t14 82zM141 453h748v-160h-748v160z" />
    <glyph glyph-name="guillemotleft" unicode="&#xab;" 
d="M463 532l334 324l133 -137l-234 -223l244 -265l-135 -135l-342 369v67zM457 856l131 -137l-232 -223l244 -265l-137 -135l-342 369v67z" />
    <glyph glyph-name="logicalnot" unicode="&#xac;" 
d="M166 750h702v-435h-215v240h-487v195z" />
    <glyph glyph-name="softhyphen" unicode="&#xad;" 
d="M131 563zM131 750h768v-187h-768v187z" />
    <glyph glyph-name="registered" unicode="&#xae;" 
d="M868 193q-72 -76 -164 -116t-198 -40q-104 0 -194.5 41.5t-157.5 112.5t-105.5 166t-38.5 202q0 108 40 203t108.5 166t160 112t195.5 41q102 0 193.5 -41t160.5 -112t109.5 -166t40.5 -203q0 -212 -150 -366zM516 967q-75 0 -141 -32t-114.5 -87t-76.5 -129.5
t-28 -159.5q0 -84 28 -157t76.5 -128t114.5 -86.5t141 -31.5q74 0 139.5 32.5t115 88t78 129t28.5 155.5t-28 156t-77 129.5t-115 88t-141 32.5zM305 281v575h191q69 0 117.5 -12.5t79.5 -35t45 -54.5t14 -72q0 -50 -27.5 -91.5t-77.5 -64.5l119 -231l-150 -23l-114 232h-56
v-223h-141zM502 618q49 0 70.5 16t21.5 44q0 25 -23 39t-75 14h-50v-113h56z" />
    <glyph glyph-name="macron" unicode="&#xaf;" 
d="M221 1315h574v-180h-574v180z" />
    <glyph glyph-name="degree" unicode="&#xb0;" 
d="M524 1364q63 0 118 -23.5t95.5 -63.5t64 -93t23.5 -111t-23.5 -111t-64 -93t-95.5 -63.5t-118 -23.5t-118 22.5t-95.5 62t-64 92.5t-23.5 114t24.5 114.5t66 92.5t96 61.5t114.5 22.5zM418 1075q0 -56 29 -91.5t77 -35.5t78.5 35.5t30.5 91.5q0 28 -8 51.5t-22.5 40.5
t-34.5 27t-44 10q-48 0 -77 -36.5t-29 -92.5z" />
    <glyph glyph-name="plusminus" unicode="&#xb1;" 
d="M80 225h868v-192h-868v192zM412 1180h213v-324h321v-190h-321v-353h-213v353h-334v190h334v324z" />
    <glyph glyph-name="uni00B2" unicode="&#xb2;" 
d="M193 1130q57 98 145 152.5t201 54.5q56 0 108 -18.5t92 -52t64 -80.5t24 -103q0 -41 -10.5 -73t-37 -64t-71 -68.5t-112.5 -86.5q-22 -17 -33 -25t-19 -13.5t-16 -13t-24 -24.5h266q10 1 17.5 6t15 9.5t16.5 8.5t23 4v-204h-621v129q54 73 118 136t148 126l54 41
q40 31 58.5 61.5t18.5 54.5q0 31 -24.5 54.5t-63.5 23.5q-48 0 -88.5 -22.5t-60.5 -67.5q-6 -14 -9 -26.5t-14 -26.5z" />
    <glyph glyph-name="uni00B3" unicode="&#xb3;" 
d="M508 1337q61 0 114.5 -19t93.5 -51.5t62.5 -76t22.5 -92.5q0 -22 -6.5 -42.5t-18 -39t-26.5 -33.5t-33 -25q23 -11 44 -28t37.5 -39.5t26 -48.5t9.5 -54q0 -52 -27.5 -98t-73.5 -80.5t-106 -54.5t-125 -20q-185 0 -326 159l150 170q12 -14 19 -30.5t15 -34.5
q9 -16 22.5 -31t30 -27t36 -19t40.5 -7q60 0 97 24.5t37 59.5q0 32 -31.5 49.5t-87.5 17.5h-11.5t-16.5 -0.5t-29 -1.5t-48 -2v178q25 -3 40 -4.5t24 -2.5t13.5 -1h8.5q59 0 84 17t25 43q0 13 -7 25.5t-19 22.5t-29 16.5t-37 6.5q-83 0 -174 -112l-129 131q131 155 309 155z
" />
    <glyph glyph-name="acute" unicode="&#xb4;" 
d="M571 1462l166 -114l-215 -289l-114 67z" />
    <glyph glyph-name="micro" unicode="&#xb5;" 
d="M770 256q0 -92 27 -92q12 0 26.5 16t22.5 33l53 102l105 -194q-98 -139 -218 -139q-54 0 -96.5 22.5t-68.5 63.5q-45 -42 -104 -64t-118 -22q-45 0 -88.5 12t-79.5 35v-344h-211q0 19 1 57.5t3.5 87.5t5.5 103t7 104q3 56 6.5 112.5t6.5 107t5 92.5t2 69v518h219v-549
q0 -68 11.5 -111t30.5 -69t44 -37t52 -14q26 5 51 20t45 42t32.5 67.5t12.5 97.5v553h215v-680z" />
    <glyph glyph-name="paragraph" unicode="&#xb6;" 
d="M930 1364v-1505h-203v1323h-80v-1323h-205v790q-73 11 -135 43.5t-107 80.5t-70.5 108.5t-25.5 126.5q0 73 26 137.5t86 113t158 77t242 28.5h314z" />
    <glyph glyph-name="periodcentered" unicode="&#xb7;" 
d="M487 827q31 0 60.5 -12.5t52 -32.5t36 -46t13.5 -54q0 -30 -12.5 -56.5t-34.5 -46t-51.5 -31t-63.5 -11.5q-33 0 -61.5 11t-50 30.5t-33.5 46t-12 57.5q0 30 13 56.5t35 46t50.5 31t58.5 11.5z" />
    <glyph glyph-name="cedilla" unicode="&#xb8;" 
d="M629 -215q0 11 -14 22t-40 11h-100l25 182h164l-9 -63q78 -8 119 -47t41 -99q0 -32 -16 -64.5t-48.5 -58t-81.5 -41.5t-116 -16q-65 0 -130.5 21.5t-127.5 72.5l76 129q30 -25 56 -41.5t51 -26t49.5 -13t50.5 -3.5q29 0 40 12t11 23z" />
    <glyph glyph-name="uni00B9" unicode="&#xb9;" 
d="M627 1329v-790h-215v551l-162 -41l-60 118l291 162h146z" />
    <glyph glyph-name="ordmasculine" unicode="&#xba;" 
d="M174 915q0 88 27.5 160.5t74 124.5t107.5 80.5t127 28.5q68 0 127.5 -25t103.5 -73t69.5 -119t25.5 -162q0 -92 -27.5 -163.5t-73.5 -121.5t-106.5 -76t-126.5 -26q-69 0 -128.5 27t-104 76t-70 117.5t-25.5 151.5zM506 1126q-26 0 -48.5 -13.5t-39.5 -39.5t-27 -63.5
t-10 -85.5q0 -47 10 -83.5t27 -61t39 -37.5t47 -13t47.5 12.5t40 37t27.5 60.5t10 83q0 48 -10 86t-27 64.5t-39.5 40t-46.5 13.5zM137 483h752v-176h-752v176z" />
    <glyph glyph-name="guillemotright" unicode="&#xbb;" 
d="M598 465l-342 -369l-135 135l244 265l-234 223l133 137l334 -324v-67zM940 465l-342 -369l-137 135l244 265l-232 223l131 137l336 -324v-67z" />
    <glyph glyph-name="onequarter" unicode="&#xbc;" 
d="M782 514h129v-379h97v-127h-97v-151h-176v151h-278v92zM737 258l-100 -127h100v127zM365 1386v-638h-185v450l-133 -35l-47 94l240 129h125zM113 -10l635 1376l178 -92l-633 -1370z" />
    <glyph glyph-name="onehalf" unicode="&#xbd;" 
d="M500 336q50 79 117 122.5t165 43.5q48 0 89 -17t71.5 -46t48 -66.5t17.5 -77.5q0 -34 -8 -60t-29 -52.5t-57.5 -56t-92.5 -69.5q-21 -15 -41 -31.5t-37 -31.5h224q13 3 24 13.5t31 10.5v-168h-508v105q42 49 100 104.5t117 108.5q15 14 32.5 28.5t32 29.5t24 31t9.5 32
q0 35 -26.5 55.5t-61.5 20.5q-34 0 -55.5 -19t-32.5 -53q-3 -9 -6 -21t-12 -24zM365 1386v-638h-185v450l-133 -35l-47 94l240 129h125zM90 -10l635 1376l178 -92l-633 -1370z" />
    <glyph glyph-name="threequarters" unicode="&#xbe;" 
d="M264 1409q50 0 93.5 -15.5t75.5 -42t50.5 -62t18.5 -75.5q0 -16 -5.5 -33t-15.5 -32.5t-23.5 -28.5t-29.5 -20q42 -22 71 -58.5t29 -78.5q0 -46 -22 -84t-59.5 -65.5t-86 -42.5t-102.5 -15q-75 0 -137 32t-121 97l117 129q15 -13 20.5 -27.5t12.5 -28.5q4 -9 14 -19.5
t24 -19t32.5 -14.5t39.5 -6q40 0 69 15t29 49q0 32 -22.5 47.5t-75.5 15.5h-9t-11.5 -0.5t-21 -2t-36.5 -3.5v151q19 -8 33.5 -11t40.5 -3q42 0 60 15.5t18 33.5q0 23 -20.5 43.5t-55.5 20.5q-34 0 -68.5 -20t-72.5 -68l-94 102q51 62 110 93.5t131 31.5zM784 514h129v-379
h97v-127h-97v-151h-176v151h-278v92zM739 258l-100 -127h100v127zM131 -10l635 1376l178 -92l-633 -1370z" />
    <glyph glyph-name="questiondown" unicode="&#xbf;" 
d="M381 1139q-23 26 -35 50t-12 50q0 28 12 52.5t32.5 43.5t48 30t58.5 11t59 -11t49 -30t33.5 -43.5t12.5 -52.5q0 -29 -12.5 -54.5t-33.5 -44.5t-49 -30.5t-59 -11.5q-27 0 -54 10.5t-50 30.5zM911 205q-36 -55 -82 -98.5t-99 -74t-112.5 -47t-123.5 -16.5
q-89 0 -159.5 29.5t-119.5 80.5t-75.5 118.5t-26.5 142.5q0 67 19 118t49 90t67.5 69.5t73.5 58.5q23 18 36.5 37t20 41t8.5 46.5t2 53.5v111h203v-111q0 -43 -3 -78.5t-16.5 -70.5t-41.5 -73.5t-78 -88.5q-62 -62 -86.5 -113t-24.5 -100q0 -37 12 -69.5t33.5 -56.5
t50.5 -38t64 -14q37 0 72 14t67 40t61.5 62.5t55.5 81.5z" />
    <glyph glyph-name="Agrave" unicode="&#xc0;" 
d="M0 0zM0 0l426 1298h133l467 -1298h-240l-116 330h-334l-100 -330h-236zM629 489l-133 424l-125 -424h258zM388 1671l314 -231l-56 -101l-368 129z" />
    <glyph glyph-name="Aacute" unicode="&#xc1;" 
d="M0 0zM0 0l426 1298h133l467 -1298h-240l-116 330h-334l-100 -330h-236zM629 489l-133 424l-125 -424h258zM732 1468l-369 -129l-55 101l313 231z" />
    <glyph glyph-name="Acircumflex" unicode="&#xc2;" 
d="M0 0zM0 0l426 1298h133l467 -1298h-240l-116 330h-334l-100 -330h-236zM629 489l-133 424l-125 -424h258zM197 1417l273 221h63l258 -217l-78 -92l-215 135l-231 -129z" />
    <glyph glyph-name="Atilde" unicode="&#xc3;" 
d="M0 0zM0 0l426 1298h133l467 -1298h-240l-116 330h-334l-100 -330h-236zM629 489l-133 424l-125 -424h258zM166 1464q125 205 258 205q43 0 78.5 -21t64.5 -49q8 -8 17 -17.5t19.5 -18.5t22 -15t23.5 -6q15 0 29 10t27.5 26t27 37t27.5 44l112 -127q-33 -42 -60.5 -74
t-52.5 -53.5t-49.5 -33t-52.5 -11.5q-38 0 -71 16t-62 41q-9 8 -20.5 21t-25 26t-28.5 22t-30 9q-31 0 -55 -33.5t-58 -99.5z" />
    <glyph glyph-name="Adieresis" unicode="&#xc4;" 
d="M0 0zM0 0l426 1298h133l467 -1298h-240l-116 330h-334l-100 -330h-236zM629 489l-133 424l-125 -424h258zM305 1663q31 0 57.5 -11.5t46 -30t30 -42.5t10.5 -49q0 -27 -11.5 -51t-31 -41.5t-46 -28t-55.5 -10.5t-55 10.5t-45 28t-30 41.5t-11 51t11 51t30 42.5t45 29
t55 10.5zM682 1663q32 0 58 -11.5t44.5 -30.5t28.5 -43t10 -48q0 -27 -11 -51t-30 -41.5t-45 -28t-55 -10.5t-55 10t-45 27.5t-30 41.5t-11 52t11 52t30 42t45 28.5t55 10.5z" />
    <glyph glyph-name="Aring" unicode="&#xc5;" 
d="M489 1661q44 0 83 -16t68.5 -44t47 -64.5t17.5 -78.5q0 -32 -10.5 -61.5t-28.5 -54.5t-43 -44t-54 -30l457 -1268h-240l-116 330h-334l-100 -330h-236l416 1266q-30 11 -55 30t-43.5 44t-28.5 55t-10 63q0 42 17 78.5t45.5 64.5t66.5 44t81 16zM629 489l-133 410
l-125 -410h258zM426 1460q0 -32 19 -54t47 -22q27 0 46 22t19 54t-19 55t-46 23q-28 0 -47 -23t-19 -55z" />
    <glyph glyph-name="AE" unicode="&#xc6;" 
d="M389 1276h627v-195h-322v-317h271v-201h-271v-366h318v-197h-531v326h-174l-90 -326h-221zM483 967l-125 -453h125v453z" />
    <glyph glyph-name="Ccedilla" unicode="&#xc7;" 
d="M629 -215q0 11 -14 22t-40 11h-100l21 151q-96 15 -176.5 62.5t-138 130t-90 199.5t-32.5 270q0 125 21.5 224.5t59 174.5t87.5 128t106.5 86.5t116.5 49t117 15.5q72 0 138 -21t121.5 -59.5t99 -92t71.5 -118.5l-206 -103q-9 3 -12 9t-3.5 14.5t-1.5 19.5t-6 23
q-29 66 -78 103.5t-125 37.5q-61 0 -110.5 -34.5t-84.5 -97.5t-54 -152t-19 -197q0 -105 20.5 -193.5t57.5 -153.5t89 -101.5t114 -36.5q74 0 130 45.5t101 124.5l174 -113q-62 -105 -144.5 -165t-179.5 -77l-4 -34q78 -8 119 -47t41 -99q0 -32 -16 -64.5t-48.5 -58
t-81.5 -41.5t-116 -16q-65 0 -130.5 21.5t-127.5 72.5l76 129q30 -25 56 -41.5t51 -26t49.5 -13t50.5 -3.5q29 0 40 12t11 23z" />
    <glyph glyph-name="Egrave" unicode="&#xc8;" 
d="M115 0zM115 1276h831v-197h-608v-315h504v-201h-504v-366h604v-197h-827v1276zM388 1671l314 -231l-56 -101l-368 129z" />
    <glyph glyph-name="Eacute" unicode="&#xc9;" 
d="M115 0zM115 1276h831v-197h-608v-315h504v-201h-504v-366h604v-197h-827v1276zM764 1468l-369 -129l-55 101l313 231z" />
    <glyph glyph-name="Ecircumflex" unicode="&#xca;" 
d="M115 0zM115 1276h831v-197h-608v-315h504v-201h-504v-366h604v-197h-827v1276zM214 1417l273 221h63l258 -217l-78 -92l-215 135l-231 -129z" />
    <glyph glyph-name="Edieresis" unicode="&#xcb;" 
d="M115 0zM115 1276h831v-197h-608v-315h504v-201h-504v-366h604v-197h-827v1276zM317 1663q31 0 57.5 -11.5t46 -30t30 -42.5t10.5 -49q0 -27 -11.5 -51t-31 -41.5t-46 -28t-55.5 -10.5t-55 10.5t-45 28t-30 41.5t-11 51t11 51t30 42.5t45 29t55 10.5zM694 1663
q32 0 58 -11.5t44.5 -30.5t28.5 -43t10 -48q0 -27 -11 -51t-30 -41.5t-45 -28t-55 -10.5t-55 10t-45 27.5t-30 41.5t-11 52t11 52t30 42t45 28.5t55 10.5z" />
    <glyph glyph-name="Igrave" unicode="&#xcc;" 
d="M150 0zM162 1276h712v-191h-247v-897h258v-188h-735v190h247v895h-235v191zM388 1671l314 -231l-56 -101l-368 129z" />
    <glyph glyph-name="Iacute" unicode="&#xcd;" 
d="M150 0zM162 1276h712v-191h-247v-897h258v-188h-735v190h247v895h-235v191zM764 1468l-369 -129l-55 101l313 231z" />
    <glyph glyph-name="Icircumflex" unicode="&#xce;" 
d="M150 0zM162 1276h712v-191h-247v-897h258v-188h-735v190h247v895h-235v191zM195 1417l273 221h63l258 -217l-78 -92l-215 135l-231 -129z" />
    <glyph glyph-name="Idieresis" unicode="&#xcf;" 
d="M150 0zM162 1276h712v-191h-247v-897h258v-188h-735v190h247v895h-235v191zM311 1663q31 0 57.5 -11.5t46 -30t30 -42.5t10.5 -49q0 -27 -11.5 -51t-31 -41.5t-46 -28t-55.5 -10.5t-55 10.5t-45 28t-30 41.5t-11 51t11 51t30 42.5t45 29t55 10.5zM688 1663q32 0 58 -11.5
t44.5 -30.5t28.5 -43t10 -48q0 -27 -11 -51t-30 -41.5t-45 -28t-55 -10.5t-55 10t-45 27.5t-30 41.5t-11 52t11 52t30 42t45 28.5t55 10.5z" />
    <glyph glyph-name="Eth" unicode="&#xd0;" 
d="M90 580h-80v188h80v508h330q85 0 150 -12t115 -34.5t88.5 -55.5t70.5 -76q65 -88 98 -205.5t33 -263.5q0 -145 -32.5 -261.5t-103 -198t-180.5 -125.5t-264 -44h-305v580zM313 1085v-317h193v-188h-193v-400h78q181 0 267.5 114.5t86.5 328.5q0 108 -18.5 193.5
t-59 145.5t-103.5 91.5t-152 31.5h-99z" />
    <glyph glyph-name="Ntilde" unicode="&#xd1;" 
d="M66 0zM958 0h-253l-433 965v-965h-206v1276h280l406 -914v914h221q4 -4 4 -10q0 -8 -7.5 -19.5t-11.5 -42.5v-1204zM176 1464q125 205 258 205q43 0 78.5 -21t64.5 -49q8 -8 17 -17.5t19.5 -18.5t22 -15t23.5 -6q15 0 29 10t27.5 26t27 37t27.5 44l112 -127
q-33 -42 -60.5 -74t-52.5 -53.5t-49.5 -33t-52.5 -11.5q-38 0 -71 16t-62 41q-9 8 -20.5 21t-25 26t-28.5 22t-30 9q-31 0 -55 -33.5t-58 -99.5z" />
    <glyph glyph-name="Ograve" unicode="&#xd2;" 
d="M35 0zM514 -37q-113 0 -202 50.5t-150.5 141t-94 215t-32.5 271.5q0 148 33.5 271t96 211t151.5 137t200 49q96 0 182 -41t150.5 -124t102.5 -209t38 -296q0 -123 -19 -221t-52 -173t-78 -128.5t-98 -87.5t-111 -50t-117 -16zM272 653q0 -117 18 -207t50.5 -151t77 -92
t98.5 -31q46 0 88.5 23t74.5 78t51.5 145.5t19.5 224.5q0 128 -21 216t-54 142.5t-74.5 78.5t-82.5 24q-49 0 -93.5 -22t-78.5 -74t-54 -138.5t-20 -216.5zM388 1671l314 -231l-56 -101l-368 129z" />
    <glyph glyph-name="Oacute" unicode="&#xd3;" 
d="M35 0zM514 -37q-113 0 -202 50.5t-150.5 141t-94 215t-32.5 271.5q0 148 33.5 271t96 211t151.5 137t200 49q96 0 182 -41t150.5 -124t102.5 -209t38 -296q0 -123 -19 -221t-52 -173t-78 -128.5t-98 -87.5t-111 -50t-117 -16zM272 653q0 -117 18 -207t50.5 -151t77 -92
t98.5 -31q46 0 88.5 23t74.5 78t51.5 145.5t19.5 224.5q0 128 -21 216t-54 142.5t-74.5 78.5t-82.5 24q-49 0 -93.5 -22t-78.5 -74t-54 -138.5t-20 -216.5zM764 1468l-369 -129l-55 101l313 231z" />
    <glyph glyph-name="Ocircumflex" unicode="&#xd4;" 
d="M35 0zM514 -37q-113 0 -202 50.5t-150.5 141t-94 215t-32.5 271.5q0 148 33.5 271t96 211t151.5 137t200 49q96 0 182 -41t150.5 -124t102.5 -209t38 -296q0 -123 -19 -221t-52 -173t-78 -128.5t-98 -87.5t-111 -50t-117 -16zM272 653q0 -117 18 -207t50.5 -151t77 -92
t98.5 -31q46 0 88.5 23t74.5 78t51.5 145.5t19.5 224.5q0 128 -21 216t-54 142.5t-74.5 78.5t-82.5 24q-49 0 -93.5 -22t-78.5 -74t-54 -138.5t-20 -216.5zM219 1417l273 221h63l258 -217l-78 -92l-215 135l-231 -129z" />
    <glyph glyph-name="Otilde" unicode="&#xd5;" 
d="M35 0zM514 -37q-113 0 -202 50.5t-150.5 141t-94 215t-32.5 271.5q0 148 33.5 271t96 211t151.5 137t200 49q96 0 182 -41t150.5 -124t102.5 -209t38 -296q0 -123 -19 -221t-52 -173t-78 -128.5t-98 -87.5t-111 -50t-117 -16zM272 653q0 -117 18 -207t50.5 -151t77 -92
t98.5 -31q46 0 88.5 23t74.5 78t51.5 145.5t19.5 224.5q0 128 -21 216t-54 142.5t-74.5 78.5t-82.5 24q-49 0 -93.5 -22t-78.5 -74t-54 -138.5t-20 -216.5zM176 1464q125 205 258 205q43 0 78.5 -21t64.5 -49q8 -8 17 -17.5t19.5 -18.5t22 -15t23.5 -6q15 0 29 10t27.5 26
t27 37t27.5 44l112 -127q-33 -42 -60.5 -74t-52.5 -53.5t-49.5 -33t-52.5 -11.5q-38 0 -71 16t-62 41q-9 8 -20.5 21t-25 26t-28.5 22t-30 9q-31 0 -55 -33.5t-58 -99.5z" />
    <glyph glyph-name="Odieresis" unicode="&#xd6;" 
d="M35 0zM514 -37q-113 0 -202 50.5t-150.5 141t-94 215t-32.5 271.5q0 148 33.5 271t96 211t151.5 137t200 49q96 0 182 -41t150.5 -124t102.5 -209t38 -296q0 -123 -19 -221t-52 -173t-78 -128.5t-98 -87.5t-111 -50t-117 -16zM272 653q0 -117 18 -207t50.5 -151t77 -92
t98.5 -31q46 0 88.5 23t74.5 78t51.5 145.5t19.5 224.5q0 128 -21 216t-54 142.5t-74.5 78.5t-82.5 24q-49 0 -93.5 -22t-78.5 -74t-54 -138.5t-20 -216.5zM317 1663q31 0 57.5 -11.5t46 -30t30 -42.5t10.5 -49q0 -27 -11.5 -51t-31 -41.5t-46 -28t-55.5 -10.5t-55 10.5
t-45 28t-30 41.5t-11 51t11 51t30 42.5t45 29t55 10.5zM694 1663q32 0 58 -11.5t44.5 -30.5t28.5 -43t10 -48q0 -27 -11 -51t-30 -41.5t-45 -28t-55 -10.5t-55 10t-45 27.5t-30 41.5t-11 52t11 52t30 42t45 28.5t55 10.5z" />
    <glyph glyph-name="multiply" unicode="&#xd7;" 
d="M758 1083l153 -139l-243 -254l237 -252l-147 -149l-238 252l-235 -242l-144 143l238 246l-238 252l150 145l233 -245z" />
    <glyph glyph-name="Oslash" unicode="&#xd8;" 
d="M514 -37q-59 0 -110.5 14.5t-98.5 38.5l-84 -157l-180 94l113 213q-59 90 -89 211t-30 264q0 148 33.5 271t96 211t151.5 137t200 49q57 0 110.5 -15.5t102.5 -44.5l78 148l188 -97l-112 -208q49 -82 77.5 -195t28.5 -258q0 -123 -19 -221t-52 -173t-78 -128.5t-98 -87.5
t-111 -50t-117 -16zM627 1059q-51 45 -109 45q-49 0 -93.5 -22t-78.5 -74t-54 -138.5t-20 -216.5q0 -65 6 -120t15 -103zM737 819l-327 -610q23 -19 50 -28t56 -9q46 0 88.5 23t74.5 78t51.5 145.5t19.5 224.5q0 50 -3.5 94t-9.5 82z" />
    <glyph glyph-name="Ugrave" unicode="&#xd9;" 
d="M76 0zM76 1276h243q4 -3 4.5 -5t0.5 -5q0 -4 -2.5 -8.5t-5.5 -11.5t-6.5 -17t-4.5 -25v-755q0 -66 10 -119.5t34 -90.5t64 -57t99 -20q61 0 101.5 20.5t65 58.5t34.5 92t10 122v821h225v-819q0 -125 -31 -216.5t-88 -151.5t-138 -89t-181 -29q-107 0 -188 33t-136 95
t-82.5 151t-27.5 201v825zM386 1671l314 -231l-56 -101l-368 129z" />
    <glyph glyph-name="Uacute" unicode="&#xda;" 
d="M76 0zM76 1276h243q4 -3 4.5 -5t0.5 -5q0 -4 -2.5 -8.5t-5.5 -11.5t-6.5 -17t-4.5 -25v-755q0 -66 10 -119.5t34 -90.5t64 -57t99 -20q61 0 101.5 20.5t65 58.5t34.5 92t10 122v821h225v-819q0 -125 -31 -216.5t-88 -151.5t-138 -89t-181 -29q-107 0 -188 33t-136 95
t-82.5 151t-27.5 201v825zM764 1468l-369 -129l-55 101l313 231z" />
    <glyph glyph-name="Ucircumflex" unicode="&#xdb;" 
d="M76 0zM76 1276h243q4 -3 4.5 -5t0.5 -5q0 -4 -2.5 -8.5t-5.5 -11.5t-6.5 -17t-4.5 -25v-755q0 -66 10 -119.5t34 -90.5t64 -57t99 -20q61 0 101.5 20.5t65 58.5t34.5 92t10 122v821h225v-819q0 -125 -31 -216.5t-88 -151.5t-138 -89t-181 -29q-107 0 -188 33t-136 95
t-82.5 151t-27.5 201v825zM219 1417l273 221h63l258 -217l-78 -92l-215 135l-231 -129z" />
    <glyph glyph-name="Udieresis" unicode="&#xdc;" 
d="M76 0zM76 1276h243q4 -3 4.5 -5t0.5 -5q0 -4 -2.5 -8.5t-5.5 -11.5t-6.5 -17t-4.5 -25v-755q0 -66 10 -119.5t34 -90.5t64 -57t99 -20q61 0 101.5 20.5t65 58.5t34.5 92t10 122v821h225v-819q0 -125 -31 -216.5t-88 -151.5t-138 -89t-181 -29q-107 0 -188 33t-136 95
t-82.5 151t-27.5 201v825zM334 1663q31 0 57.5 -11.5t46 -30t30 -42.5t10.5 -49q0 -27 -11.5 -51t-31 -41.5t-46 -28t-55.5 -10.5t-55 10.5t-45 28t-30 41.5t-11 51t11 51t30 42.5t45 29t55 10.5zM711 1663q32 0 58 -11.5t44.5 -30.5t28.5 -43t10 -48q0 -27 -11 -51
t-30 -41.5t-45 -28t-55 -10.5t-55 10t-45 27.5t-30 41.5t-11 52t11 52t30 42t45 28.5t55 10.5z" />
    <glyph glyph-name="Yacute" unicode="&#xdd;" 
d="M18 0zM18 1276h256l263 -516l233 516h248l-365 -774v-502h-241v504zM764 1468l-369 -129l-55 101l313 231z" />
    <glyph glyph-name="Thorn" unicode="&#xde;" 
d="M102 1276h250q4 -4 4 -10q0 -4 -2.5 -8.5t-5.5 -11.5t-6 -17t-4 -25v-147h197q114 0 195 -30.5t133.5 -83t77 -122t24.5 -147.5t-24 -146.5t-75 -119.5t-130.5 -81t-190.5 -30h-209v-297h-234v1276zM336 492h192q53 0 91 13.5t62.5 37t36 55.5t11.5 70q0 36 -12 69.5
t-36.5 59.5t-62 41.5t-88.5 15.5h-192z" />
    <glyph glyph-name="germandbls" unicode="&#xdf;" 
d="M78 0v854q0 126 26.5 224t77.5 165.5t125.5 103t169.5 35.5q88 0 160 -33t122 -87.5t77.5 -124t27.5 -142.5q0 -40 -11 -78t-30 -71.5t-44.5 -61t-53.5 -45.5q51 -21 93 -55.5t71 -80.5t45 -103t16 -121q0 -92 -25 -167.5t-74.5 -129.5t-123.5 -83.5t-172 -29.5
q-57 0 -107 16.5t-106 47.5l115 180q52 -49 106 -49q36 0 66.5 14.5t53 41t35.5 62.5t13 80q0 58 -16 107t-47.5 84t-78.5 54.5t-110 19.5h-102v182h115q33 0 60.5 11.5t48 36t31.5 62.5t11 91q0 36 -10.5 70t-31.5 60t-53 42t-75 16q-45 0 -78 -25t-54.5 -70t-31.5 -107.5
t-10 -137.5v-858h-221z" />
    <glyph glyph-name="agrave" unicode="&#xe0;" 
d="M82 0zM154 821q148 156 362 156q91 0 163 -23t122 -71.5t77 -123t27 -177.5v-582h-219v86q-54 -51 -128.5 -81t-149.5 -30q-84 0 -145.5 22.5t-101.5 60.5t-59.5 89t-19.5 107q0 74 31.5 135.5t92.5 106t150.5 69.5t206.5 25h121q-2 109 -44 158t-132 49
q-117 0 -238 -127zM606 418q-90 2 -148 -10.5t-91 -34.5t-45.5 -50.5t-12.5 -56.5q0 -24 11 -45t30 -36.5t44.5 -25t54.5 -9.5q47 0 84.5 16.5t65.5 39.5t47 48t28 43q8 15 12 44.5t4 74.5zM686 1126l-115 -67l-215 289l166 114z" />
    <glyph glyph-name="aacute" unicode="&#xe1;" 
d="M82 0zM154 821q148 156 362 156q91 0 163 -23t122 -71.5t77 -123t27 -177.5v-582h-219v86q-54 -51 -128.5 -81t-149.5 -30q-84 0 -145.5 22.5t-101.5 60.5t-59.5 89t-19.5 107q0 74 31.5 135.5t92.5 106t150.5 69.5t206.5 25h121q-2 109 -44 158t-132 49
q-117 0 -238 -127zM606 418q-90 2 -148 -10.5t-91 -34.5t-45.5 -50.5t-12.5 -56.5q0 -24 11 -45t30 -36.5t44.5 -25t54.5 -9.5q47 0 84.5 16.5t65.5 39.5t47 48t28 43q8 15 12 44.5t4 74.5zM571 1462l166 -114l-215 -289l-114 67z" />
    <glyph glyph-name="acircumflex" unicode="&#xe2;" 
d="M82 0zM154 821q148 156 362 156q91 0 163 -23t122 -71.5t77 -123t27 -177.5v-582h-219v86q-54 -51 -128.5 -81t-149.5 -30q-84 0 -145.5 22.5t-101.5 60.5t-59.5 89t-19.5 107q0 74 31.5 135.5t92.5 106t150.5 69.5t206.5 25h121q-2 109 -44 158t-132 49
q-117 0 -238 -127zM606 418q-90 2 -148 -10.5t-91 -34.5t-45.5 -50.5t-12.5 -56.5q0 -24 11 -45t30 -36.5t44.5 -25t54.5 -9.5q47 0 84.5 16.5t65.5 39.5t47 48t28 43q8 15 12 44.5t4 74.5zM268 1130l235 297h66l236 -299l-119 -88l-156 181l-164 -179z" />
    <glyph glyph-name="atilde" unicode="&#xe3;" 
d="M82 0zM154 821q148 156 362 156q91 0 163 -23t122 -71.5t77 -123t27 -177.5v-582h-219v86q-54 -51 -128.5 -81t-149.5 -30q-84 0 -145.5 22.5t-101.5 60.5t-59.5 89t-19.5 107q0 74 31.5 135.5t92.5 106t150.5 69.5t206.5 25h121q-2 109 -44 158t-132 49
q-117 0 -238 -127zM606 418q-90 2 -148 -10.5t-91 -34.5t-45.5 -50.5t-12.5 -56.5q0 -24 11 -45t30 -36.5t44.5 -25t54.5 -9.5q47 0 84.5 16.5t65.5 39.5t47 48t28 43q8 15 12 44.5t4 74.5zM194 1217q125 204 258 204q44 0 79.5 -20.5t64.5 -48.5q7 -8 16.5 -18t19.5 -19
t21.5 -15t23.5 -6q15 0 29 10t27.5 26.5t27 37.5t27.5 43l113 -127q-33 -41 -60.5 -73t-52.5 -54t-50 -33.5t-52 -11.5q-39 0 -71.5 16.5t-61.5 40.5q-9 8 -21 21t-25.5 26t-28.5 22t-30 9q-31 0 -55 -33.5t-58 -99.5z" />
    <glyph glyph-name="adieresis" unicode="&#xe4;" 
d="M82 0zM154 821q148 156 362 156q91 0 163 -23t122 -71.5t77 -123t27 -177.5v-582h-219v86q-54 -51 -128.5 -81t-149.5 -30q-84 0 -145.5 22.5t-101.5 60.5t-59.5 89t-19.5 107q0 74 31.5 135.5t92.5 106t150.5 69.5t206.5 25h121q-2 109 -44 158t-132 49
q-117 0 -238 -127zM606 418q-90 2 -148 -10.5t-91 -34.5t-45.5 -50.5t-12.5 -56.5q0 -24 11 -45t30 -36.5t44.5 -25t54.5 -9.5q47 0 84.5 16.5t65.5 39.5t47 48t28 43q8 15 12 44.5t4 74.5zM351 1386q27 0 52.5 -9.5t45.5 -27t32.5 -42t12.5 -54.5q0 -27 -11.5 -50.5
t-31 -41.5t-45.5 -28.5t-55 -10.5t-55 10.5t-45.5 28.5t-30.5 41.5t-11 50.5t11 51t30.5 42.5t45.5 29t55 10.5zM727 1386q26 0 51.5 -9.5t45.5 -27t32.5 -42t12.5 -54.5q0 -27 -11 -50.5t-30.5 -41.5t-45.5 -28.5t-55 -10.5t-54.5 10t-45 28t-30.5 42t-11 51q0 28 11 52
t30.5 42t45 28.5t54.5 10.5z" />
    <glyph glyph-name="aring" unicode="&#xe5;" 
d="M82 0zM154 821q148 156 362 156q91 0 163 -23t122 -71.5t77 -123t27 -177.5v-582h-219v86q-54 -51 -128.5 -81t-149.5 -30q-84 0 -145.5 22.5t-101.5 60.5t-59.5 89t-19.5 107q0 74 31.5 135.5t92.5 106t150.5 69.5t206.5 25h121q-2 109 -44 158t-132 49
q-117 0 -238 -127zM606 418q-90 2 -148 -10.5t-91 -34.5t-45.5 -50.5t-12.5 -56.5q0 -24 11 -45t30 -36.5t44.5 -25t54.5 -9.5q47 0 84.5 16.5t65.5 39.5t47 48t28 43q8 15 12 44.5t4 74.5zM510 1456q44 0 83 -16t68.5 -44t46.5 -64.5t17 -78.5t-17 -79t-46.5 -65t-68.5 -44
t-83 -16q-43 0 -81.5 16t-67 44t-45.5 65t-17 79t17 78.5t45.5 64.5t67 44t81.5 16zM446 1255q0 -32 19 -53.5t47 -21.5t47 21.5t19 53.5t-19 55t-47 23t-47 -23t-19 -55z" />
    <glyph glyph-name="ae" unicode="&#xe6;" 
d="M35 842q52 68 122.5 100.5t151.5 32.5q31 0 63 -9.5t61.5 -25.5t54.5 -37.5t42 -44.5q16 24 37.5 45.5t46.5 37t52.5 25t56.5 9.5q75 0 130 -30t90 -85t52 -132.5t17 -172.5v-100l-406 -17v-73q0 -50 11 -90.5t32 -70t51 -45.5t68 -16q81 0 143 105l113 -139
q-54 -65 -121.5 -99.5t-144.5 -34.5q-71 0 -131.5 33.5t-102.5 91.5q-18 -28 -43 -51t-54.5 -39.5t-62 -25.5t-65.5 -9q-68 0 -122.5 24t-92.5 64.5t-59 92.5t-21 108q0 73 29 134t83 105t130.5 70t171.5 29q0 99 -31.5 154t-87.5 55q-38 0 -76 -25.5t-76 -87.5zM424 430
q-62 -3 -104 -17t-68 -36t-37.5 -51t-11.5 -62q0 -21 8 -41.5t22 -36.5t32 -26t38 -10q66 0 93.5 45.5t27.5 136.5v98zM827 614v11q0 40 -6.5 74.5t-20 59t-33 38.5t-44.5 14q-29 0 -50.5 -16.5t-36.5 -44t-22.5 -64.5t-7.5 -78z" />
    <glyph glyph-name="ccedilla" unicode="&#xe7;" 
d="M799 621q-9 2 -13 7.5t-6 12.5t-3.5 15.5t-4.5 17.5q-28 48 -80.5 80t-128.5 32q-52 0 -98 -22.5t-80 -63t-54 -96.5t-20 -123q0 -68 18.5 -125.5t52 -100.5t80 -67t103.5 -24q28 0 58.5 6.5t61.5 21.5t61 39.5t59 59.5l133 -154q-60 -69 -130.5 -107.5t-148.5 -52.5
l-4 -40q78 -8 119 -47t41 -99q0 -32 -16 -64.5t-48.5 -58t-81.5 -41.5t-116 -16q-65 0 -130.5 21.5t-127.5 72.5l76 129q30 -25 56 -41.5t51 -26t49.5 -13t50.5 -3.5q29 0 40 12t11 23t-14 22t-40 11h-100l21 153q-93 10 -170 51.5t-132 107t-85.5 152t-30.5 187.5
q0 107 35 199.5t99 161t153.5 108t197.5 39.5q60 0 116 -12t105.5 -35t90.5 -57.5t71 -79.5z" />
    <glyph glyph-name="egrave" unicode="&#xe8;" 
d="M76 0zM528 977q85 0 159 -30t129.5 -88.5t87.5 -146t32 -202.5q0 -25 -2 -49t-4 -47h-627q8 -69 32 -118.5t58 -82t75.5 -48t84.5 -15.5q65 0 127.5 29.5t107.5 86.5l127 -127q-145 -172 -362 -172q-103 0 -190.5 34t-151 98t-99.5 156.5t-36 209.5q0 119 34 214
t94.5 161t143 101.5t180.5 35.5zM707 582q0 45 -13.5 85.5t-38 71t-60 48.5t-79.5 18q-42 0 -77.5 -16t-62 -45t-43 -70t-22.5 -92h396zM686 1126l-115 -67l-215 289l166 114z" />
    <glyph glyph-name="eacute" unicode="&#xe9;" 
d="M76 0zM528 977q85 0 159 -30t129.5 -88.5t87.5 -146t32 -202.5q0 -25 -2 -49t-4 -47h-627q8 -69 32 -118.5t58 -82t75.5 -48t84.5 -15.5q65 0 127.5 29.5t107.5 86.5l127 -127q-145 -172 -362 -172q-103 0 -190.5 34t-151 98t-99.5 156.5t-36 209.5q0 119 34 214
t94.5 161t143 101.5t180.5 35.5zM707 582q0 45 -13.5 85.5t-38 71t-60 48.5t-79.5 18q-42 0 -77.5 -16t-62 -45t-43 -70t-22.5 -92h396zM571 1462l166 -114l-215 -289l-114 67z" />
    <glyph glyph-name="ecircumflex" unicode="&#xea;" 
d="M76 0zM528 977q85 0 159 -30t129.5 -88.5t87.5 -146t32 -202.5q0 -25 -2 -49t-4 -47h-627q8 -69 32 -118.5t58 -82t75.5 -48t84.5 -15.5q65 0 127.5 29.5t107.5 86.5l127 -127q-145 -172 -362 -172q-103 0 -190.5 34t-151 98t-99.5 156.5t-36 209.5q0 119 34 214
t94.5 161t143 101.5t180.5 35.5zM707 582q0 45 -13.5 85.5t-38 71t-60 48.5t-79.5 18q-42 0 -77.5 -16t-62 -45t-43 -70t-22.5 -92h396zM254 1130l235 297h66l236 -299l-119 -88l-156 181l-164 -179z" />
    <glyph glyph-name="edieresis" unicode="&#xeb;" 
d="M76 0zM528 977q85 0 159 -30t129.5 -88.5t87.5 -146t32 -202.5q0 -25 -2 -49t-4 -47h-627q8 -69 32 -118.5t58 -82t75.5 -48t84.5 -15.5q65 0 127.5 29.5t107.5 86.5l127 -127q-145 -172 -362 -172q-103 0 -190.5 34t-151 98t-99.5 156.5t-36 209.5q0 119 34 214
t94.5 161t143 101.5t180.5 35.5zM707 582q0 45 -13.5 85.5t-38 71t-60 48.5t-79.5 18q-42 0 -77.5 -16t-62 -45t-43 -70t-22.5 -92h396zM328 1386q27 0 52.5 -9.5t45.5 -27t32.5 -42t12.5 -54.5q0 -27 -11.5 -50.5t-31 -41.5t-45.5 -28.5t-55 -10.5t-55 10.5t-45.5 28.5
t-30.5 41.5t-11 50.5t11 51t30.5 42.5t45.5 29t55 10.5zM704 1386q26 0 51.5 -9.5t45.5 -27t32.5 -42t12.5 -54.5q0 -27 -11 -50.5t-30.5 -41.5t-45.5 -28.5t-55 -10.5t-54.5 10t-45 28t-30.5 42t-11 51q0 28 11 52t30.5 42t45 28.5t54.5 10.5z" />
    <glyph glyph-name="igrave" unicode="&#xec;" 
d="M182 0zM193 956h448v-772h209v-184h-668v184h230v588h-219v184zM585 1126l-115 -67l-215 289l166 114z" />
    <glyph glyph-name="iacute" unicode="&#xed;" 
d="M182 0zM193 956h448v-772h209v-184h-668v184h230v588h-219v184zM556 1462l166 -114l-215 -289l-114 67z" />
    <glyph glyph-name="icircumflex" unicode="&#xee;" 
d="M182 0zM193 956h448v-772h209v-184h-668v184h230v588h-219v184zM214 1130l235 297h66l236 -299l-119 -88l-156 181l-164 -179z" />
    <glyph glyph-name="idieresis" unicode="&#xef;" 
d="M169 0zM193 956h448v-772h209v-184h-668v184h230v588h-219v184zM311 1386q27 0 52.5 -9.5t45.5 -27t32.5 -42t12.5 -54.5q0 -27 -11.5 -50.5t-31 -41.5t-45.5 -28.5t-55 -10.5t-55 10.5t-45.5 28.5t-30.5 41.5t-11 50.5t11 51t30.5 42.5t45.5 29t55 10.5zM687 1386
q26 0 51.5 -9.5t45.5 -27t32.5 -42t12.5 -54.5q0 -27 -11 -50.5t-30.5 -41.5t-45.5 -28.5t-55 -10.5t-54.5 10t-45 28t-30.5 42t-11 51q0 28 11 52t30.5 42t45 28.5t54.5 10.5z" />
    <glyph glyph-name="eth" unicode="&#xf0;" 
d="M473 1401q43 -28 83 -57.5t77 -61.5l235 61l58 -153l-164 -43q97 -128 149 -285.5t52 -347.5q0 -122 -27.5 -222.5t-83 -172.5t-138 -112t-192.5 -40q-96 0 -177.5 37.5t-141.5 103t-93.5 155t-33.5 194.5q0 102 30.5 194t86 162t133 111t170.5 41q24 0 51 -5.5t53 -15
t50.5 -23.5t43.5 -32q-20 42 -47.5 91.5t-77.5 106.5l-254 -71l-61 162l170 43q-42 31 -90 62t-107 63zM528 160q43 0 80 19.5t64 58.5t42 98t15 139q0 81 -17 137.5t-45.5 92.5t-65.5 52.5t-77 16.5q-44 0 -82.5 -19.5t-66.5 -57.5t-44 -94t-16 -128q0 -68 15 -126
t42.5 -100t67 -65.5t88.5 -23.5z" />
    <glyph glyph-name="ntilde" unicode="&#xf1;" 
d="M123 0zM123 0v956h231v-98q50 54 116 86.5t134 32.5q72 0 131 -22t100.5 -69.5t64 -123t22.5 -182.5v-580h-226v578q0 55 -10 95t-28 65.5t-43 37.5t-56 12q-43 0 -80.5 -17t-65 -48t-43.5 -74.5t-16 -95.5v-553h-231zM169 1217q125 204 258 204q44 0 79.5 -20.5
t64.5 -48.5q7 -8 16.5 -18t19.5 -19t21.5 -15t23.5 -6q15 0 29 10t27.5 26.5t27 37.5t27.5 43l113 -127q-33 -41 -60.5 -73t-52.5 -54t-50 -33.5t-52 -11.5q-39 0 -71.5 16.5t-61.5 40.5q-9 8 -21 21t-25.5 26t-28.5 22t-30 9q-31 0 -55 -33.5t-58 -99.5z" />
    <glyph glyph-name="ograve" unicode="&#xf2;" 
d="M59 0zM520 977q93 0 174 -34t141.5 -98.5t95 -158.5t34.5 -213t-34 -213t-93.5 -159t-141.5 -99.5t-178 -34.5t-179.5 37t-146 104t-98 159t-35.5 202q0 109 36.5 202t99.5 161t146.5 106.5t178.5 38.5zM737 469q0 78 -16.5 138t-46.5 101.5t-71 63t-89 21.5
q-49 0 -89.5 -21.5t-69 -62.5t-44.5 -99.5t-16 -132.5t15.5 -133.5t44.5 -101.5t70.5 -65t92.5 -23q100 0 159.5 81t59.5 234zM686 1126l-115 -67l-215 289l166 114z" />
    <glyph glyph-name="oacute" unicode="&#xf3;" 
d="M59 0zM520 977q93 0 174 -34t141.5 -98.5t95 -158.5t34.5 -213t-34 -213t-93.5 -159t-141.5 -99.5t-178 -34.5t-179.5 37t-146 104t-98 159t-35.5 202q0 109 36.5 202t99.5 161t146.5 106.5t178.5 38.5zM737 469q0 78 -16.5 138t-46.5 101.5t-71 63t-89 21.5
q-49 0 -89.5 -21.5t-69 -62.5t-44.5 -99.5t-16 -132.5t15.5 -133.5t44.5 -101.5t70.5 -65t92.5 -23q100 0 159.5 81t59.5 234zM571 1462l166 -114l-215 -289l-114 67z" />
    <glyph glyph-name="ocircumflex" unicode="&#xf4;" 
d="M59 0zM520 977q93 0 174 -34t141.5 -98.5t95 -158.5t34.5 -213t-34 -213t-93.5 -159t-141.5 -99.5t-178 -34.5t-179.5 37t-146 104t-98 159t-35.5 202q0 109 36.5 202t99.5 161t146.5 106.5t178.5 38.5zM737 469q0 78 -16.5 138t-46.5 101.5t-71 63t-89 21.5
q-49 0 -89.5 -21.5t-69 -62.5t-44.5 -99.5t-16 -132.5t15.5 -133.5t44.5 -101.5t70.5 -65t92.5 -23q100 0 159.5 81t59.5 234zM254 1130l235 297h66l236 -299l-119 -88l-156 181l-164 -179z" />
    <glyph glyph-name="otilde" unicode="&#xf5;" 
d="M59 0zM520 977q93 0 174 -34t141.5 -98.5t95 -158.5t34.5 -213t-34 -213t-93.5 -159t-141.5 -99.5t-178 -34.5t-179.5 37t-146 104t-98 159t-35.5 202q0 109 36.5 202t99.5 161t146.5 106.5t178.5 38.5zM737 469q0 78 -16.5 138t-46.5 101.5t-71 63t-89 21.5
q-49 0 -89.5 -21.5t-69 -62.5t-44.5 -99.5t-16 -132.5t15.5 -133.5t44.5 -101.5t70.5 -65t92.5 -23q100 0 159.5 81t59.5 234zM176 1217q125 204 258 204q44 0 79.5 -20.5t64.5 -48.5q7 -8 16.5 -18t19.5 -19t21.5 -15t23.5 -6q15 0 29 10t27.5 26.5t27 37.5t27.5 43
l113 -127q-33 -41 -60.5 -73t-52.5 -54t-50 -33.5t-52 -11.5q-39 0 -71.5 16.5t-61.5 40.5q-9 8 -21 21t-25.5 26t-28.5 22t-30 9q-31 0 -55 -33.5t-58 -99.5z" />
    <glyph glyph-name="odieresis" unicode="&#xf6;" 
d="M59 0zM520 977q93 0 174 -34t141.5 -98.5t95 -158.5t34.5 -213t-34 -213t-93.5 -159t-141.5 -99.5t-178 -34.5t-179.5 37t-146 104t-98 159t-35.5 202q0 109 36.5 202t99.5 161t146.5 106.5t178.5 38.5zM737 469q0 78 -16.5 138t-46.5 101.5t-71 63t-89 21.5
q-49 0 -89.5 -21.5t-69 -62.5t-44.5 -99.5t-16 -132.5t15.5 -133.5t44.5 -101.5t70.5 -65t92.5 -23q100 0 159.5 81t59.5 234zM326 1386q27 0 52.5 -9.5t45.5 -27t32.5 -42t12.5 -54.5q0 -27 -11.5 -50.5t-31 -41.5t-45.5 -28.5t-55 -10.5t-55 10.5t-45.5 28.5t-30.5 41.5
t-11 50.5t11 51t30.5 42.5t45.5 29t55 10.5zM702 1386q26 0 51.5 -9.5t45.5 -27t32.5 -42t12.5 -54.5q0 -27 -11 -50.5t-30.5 -41.5t-45.5 -28.5t-55 -10.5t-54.5 10t-45 28t-30.5 42t-11 51q0 28 11 52t30.5 42t45 28.5t54.5 10.5z" />
    <glyph glyph-name="divide" unicode="&#xf7;" 
d="M127 762h772v-203h-772v203zM522 1071q31 0 55 -12.5t41 -31t26 -40.5t9 -41q0 -24 -10.5 -46t-28 -38.5t-41.5 -26.5t-51 -10t-50.5 10t-41.5 26.5t-28.5 38.5t-10.5 46q0 25 11 48t29 40t41.5 27t49.5 10zM522 489q32 0 56.5 -12t41 -30.5t25 -40t8.5 -39.5
q0 -26 -10.5 -48t-28 -38t-41.5 -25.5t-51 -9.5q-26 0 -50 9.5t-42.5 25.5t-29.5 38t-11 48q0 27 11.5 49.5t30 38.5t42.5 25t49 9z" />
    <glyph glyph-name="oslash" unicode="&#xf8;" 
d="M899 975l-70 -127q63 -65 99.5 -159t36.5 -216q0 -119 -34 -213t-93.5 -159t-141.5 -99.5t-178 -34.5q-80 0 -156 29l-71 -135l-176 92l82 151q-65 67 -101.5 159.5t-36.5 205.5q0 109 36.5 202t99.5 161t146.5 106.5t178.5 38.5q35 0 70 -5.5t67 -15.5l64 115zM455 162
q15 -5 30.5 -6.5t32.5 -1.5q100 0 159.5 81t59.5 234q0 93 -24 164zM565 786q-22 7 -51 7q-49 0 -89.5 -21.5t-69 -62.5t-44.5 -99.5t-16 -132.5q0 -43 4.5 -81t15.5 -72z" />
    <glyph glyph-name="ugrave" unicode="&#xf9;" 
d="M104 0zM903 956v-841q0 -26 5.5 -55t13.5 -60h-222q-12 9 -16 27t-4 32v31q-21 -31 -51 -55t-65 -41t-71.5 -26t-70.5 -9q-75 0 -134 22t-100 70t-62.5 124t-21.5 183v598h226v-598q0 -110 37.5 -160.5t99.5 -50.5q43 0 80.5 17.5t65 48.5t43.5 74.5t16 95.5v573h231z
M686 1126l-115 -67l-215 289l166 114z" />
    <glyph glyph-name="uacute" unicode="&#xfa;" 
d="M104 0zM903 956v-841q0 -26 5.5 -55t13.5 -60h-222q-12 9 -16 27t-4 32v31q-21 -31 -51 -55t-65 -41t-71.5 -26t-70.5 -9q-75 0 -134 22t-100 70t-62.5 124t-21.5 183v598h226v-598q0 -110 37.5 -160.5t99.5 -50.5q43 0 80.5 17.5t65 48.5t43.5 74.5t16 95.5v573h231z
M571 1462l166 -114l-215 -289l-114 67z" />
    <glyph glyph-name="ucircumflex" unicode="&#xfb;" 
d="M104 0zM903 956v-841q0 -26 5.5 -55t13.5 -60h-222q-12 9 -16 27t-4 32v31q-21 -31 -51 -55t-65 -41t-71.5 -26t-70.5 -9q-75 0 -134 22t-100 70t-62.5 124t-21.5 183v598h226v-598q0 -110 37.5 -160.5t99.5 -50.5q43 0 80.5 17.5t65 48.5t43.5 74.5t16 95.5v573h231z
M254 1130l235 297h66l236 -299l-119 -88l-156 181l-164 -179z" />
    <glyph glyph-name="udieresis" unicode="&#xfc;" 
d="M104 0zM903 956v-841q0 -26 5.5 -55t13.5 -60h-222q-12 9 -16 27t-4 32v31q-21 -31 -51 -55t-65 -41t-71.5 -26t-70.5 -9q-75 0 -134 22t-100 70t-62.5 124t-21.5 183v598h226v-598q0 -110 37.5 -160.5t99.5 -50.5q43 0 80.5 17.5t65 48.5t43.5 74.5t16 95.5v573h231z
M326 1386q27 0 52.5 -9.5t45.5 -27t32.5 -42t12.5 -54.5q0 -27 -11.5 -50.5t-31 -41.5t-45.5 -28.5t-55 -10.5t-55 10.5t-45.5 28.5t-30.5 41.5t-11 50.5t11 51t30.5 42.5t45.5 29t55 10.5zM702 1386q26 0 51.5 -9.5t45.5 -27t32.5 -42t12.5 -54.5q0 -27 -11 -50.5
t-30.5 -41.5t-45.5 -28.5t-55 -10.5t-54.5 10t-45 28t-30.5 42t-11 51q0 28 11 52t30.5 42t45 28.5t54.5 10.5z" />
    <glyph glyph-name="yacute" unicode="&#xfd;" 
d="M23 0zM590 -104q-26 -69 -60 -118t-74 -80t-85.5 -45.5t-94.5 -14.5q-141 0 -253 108l114 197q12 -6 17 -13t8 -16t6 -19t10 -22q14 -25 34.5 -37t51.5 -12q22 0 42 9t39.5 31t38.5 58t38 90l-359 944h281q0 -11 -2 -18.5t-5 -14.5t-5 -14.5t-2 -17.5l213 -594l92 252
q19 51 36.5 105t32.5 107t27 102.5t21 92.5h219q-25 -103 -62 -213.5t-82 -224.5zM571 1462l166 -114l-215 -289l-114 67z" />
    <glyph glyph-name="thorn" unicode="&#xfe;" 
d="M330 489q0 -89 13 -151.5t37 -102t58.5 -57.5t77.5 -18q34 0 71 16t68 52t50.5 94.5t19.5 144.5q0 91 -19.5 156.5t-56.5 105.5q-28 31 -59.5 46.5t-79.5 15.5q-56 0 -91 -24.5t-54.5 -66.5t-27 -96.5t-7.5 -114.5zM102 1382h258q0 -12 -4 -19t-8.5 -12.5t-9.5 -11.5
t-6 -16v-449q45 50 103 76.5t118 26.5q81 0 154 -30t128.5 -90t88 -149.5t32.5 -209.5q0 -132 -33.5 -231.5t-89.5 -165.5t-128 -99t-150 -33q-26 0 -56 6t-59.5 18t-57 29.5t-48.5 40.5v-405h-232v1724z" />
    <glyph glyph-name="ydieresis" unicode="&#xff;" 
d="M23 0zM590 -104q-26 -69 -60 -118t-74 -80t-85.5 -45.5t-94.5 -14.5q-141 0 -253 108l114 197q12 -6 17 -13t8 -16t6 -19t10 -22q14 -25 34.5 -37t51.5 -12q22 0 42 9t39.5 31t38.5 58t38 90l-359 944h281q0 -11 -2 -18.5t-5 -14.5t-5 -14.5t-2 -17.5l213 -594l92 252
q19 51 36.5 105t32.5 107t27 102.5t21 92.5h219q-25 -103 -62 -213.5t-82 -224.5zM326 1386q27 0 52.5 -9.5t45.5 -27t32.5 -42t12.5 -54.5q0 -27 -11.5 -50.5t-31 -41.5t-45.5 -28.5t-55 -10.5t-55 10.5t-45.5 28.5t-30.5 41.5t-11 50.5t11 51t30.5 42.5t45.5 29t55 10.5z
M702 1386q26 0 51.5 -9.5t45.5 -27t32.5 -42t12.5 -54.5q0 -27 -11 -50.5t-30.5 -41.5t-45.5 -28.5t-55 -10.5t-54.5 10t-45 28t-30.5 42t-11 51q0 28 11 52t30.5 42t45 28.5t54.5 10.5z" />
    <glyph glyph-name="Abreve" unicode="&#x102;" 
d="M0 0zM0 0l426 1298h133l467 -1298h-240l-116 330h-334l-100 -330h-236zM629 489l-133 424l-125 -424h258zM283 1655q43 -76 101.5 -111t117.5 -35q27 0 55 7t57 24t57.5 45t55.5 70l98 -148q-34 -41 -74 -73.5t-82.5 -55t-86.5 -34t-86 -11.5q-81 0 -166.5 39.5
t-171.5 130.5z" />
    <glyph glyph-name="abreve" unicode="&#x103;" 
d="M82 0zM154 821q148 156 362 156q91 0 163 -23t122 -71.5t77 -123t27 -177.5v-582h-219v86q-54 -51 -128.5 -81t-149.5 -30q-84 0 -145.5 22.5t-101.5 60.5t-59.5 89t-19.5 107q0 74 31.5 135.5t92.5 106t150.5 69.5t206.5 25h121q-2 109 -44 158t-132 49
q-117 0 -238 -127zM606 418q-90 2 -148 -10.5t-91 -34.5t-45.5 -50.5t-12.5 -56.5q0 -24 11 -45t30 -36.5t44.5 -25t54.5 -9.5q47 0 84.5 16.5t65.5 39.5t47 48t28 43q8 15 12 44.5t4 74.5zM317 1382q43 -75 101.5 -110t117.5 -35q27 0 55.5 7t57.5 24t57 45t55 69l99 -147
q-34 -42 -74 -74t-82.5 -54.5t-87 -34t-86.5 -11.5q-80 0 -165.5 39.5t-172.5 130.5z" />
    <glyph glyph-name="Aogonek" unicode="&#x104;" 
d="M786 0l-116 330h-334l-100 -330h-236l424 1307h137l467 -1307q-48 -45 -79 -73.5t-49 -47.5t-25 -31t-7 -24q0 -14 8 -23.5t23 -9.5q12 0 23 3t25.5 12t33.5 24.5t47 40.5v-178q-42 -32 -84 -49t-90 -17q-97 0 -142.5 42t-45.5 108q0 24 6 47.5t22 49.5t44 56.5t71 69.5
h-23zM627 489l-131 388l-123 -388h254z" />
    <glyph glyph-name="aogonek" unicode="&#x105;" 
d="M154 821q148 156 362 156q91 0 163 -23t122 -71.5t77 -123t27 -177.5v-582q-48 -45 -79 -73.5t-49 -47.5t-25 -31t-7 -24q0 -14 8 -23.5t23 -9.5q12 0 23 3t25.5 12t33.5 24.5t47 40.5v-178q-42 -32 -84 -49t-90 -17q-97 0 -142.5 42t-45.5 108q0 24 6 47.5t22 49.5
t44 56.5t71 69.5v86q-54 -51 -128.5 -81t-149.5 -30q-84 0 -145.5 22.5t-101.5 60.5t-59.5 89t-19.5 107q0 74 31.5 135.5t92.5 106t150.5 69.5t206.5 25h121q-2 109 -44 158t-132 49q-117 0 -238 -127zM690 416q-21 2 -41.5 2h-42.5q-90 0 -148 -13t-91 -34.5t-45.5 -49
t-12.5 -55.5q0 -24 11 -45t30 -36.5t44.5 -25t54.5 -9.5q47 0 85 16t66.5 39t47 48.5t26.5 43.5q9 14 12.5 44t3.5 75z" />
    <glyph glyph-name="Cacute" unicode="&#x106;" 
d="M59 0zM791 915q-9 3 -12 9t-3.5 14.5t-1.5 19.5t-6 23q-29 66 -78 103.5t-125 37.5q-61 0 -110.5 -34.5t-84.5 -97.5t-54 -152t-19 -197q0 -105 20.5 -193.5t57.5 -153.5t89 -101.5t114 -36.5q74 0 130 45.5t101 124.5l174 -113q-72 -124 -175 -187t-224 -63
q-113 0 -209 40.5t-166.5 123.5t-110 208.5t-39.5 295.5q0 125 21.5 224.5t59 174.5t87.5 128t106.5 86.5t116.5 49t117 15.5q72 0 138 -21t121.5 -59.5t99 -92t71.5 -118.5zM730 1468l-369 -129l-55 101l313 231z" />
    <glyph glyph-name="cacute" unicode="&#x107;" 
d="M78 0zM799 621q-9 2 -13 7.5t-6 12.5t-3.5 15.5t-4.5 17.5q-28 48 -80.5 80t-128.5 32q-52 0 -98 -22.5t-80 -63t-54 -96.5t-20 -123q0 -68 18.5 -125.5t52 -100.5t80 -67t103.5 -24q28 0 58.5 6.5t61.5 21.5t61 39.5t59 59.5l133 -154q-81 -91 -178 -130.5t-205 -39.5
q-105 0 -192.5 38t-150.5 105t-98.5 159t-35.5 200q0 107 35 199.5t99 161t153.5 108t197.5 39.5q60 0 116 -12t105.5 -35t90.5 -57.5t71 -79.5zM571 1462l166 -114l-215 -289l-114 67z" />
    <glyph glyph-name="Ccaron" unicode="&#x10c;" 
d="M59 0zM791 915q-9 3 -12 9t-3.5 14.5t-1.5 19.5t-6 23q-29 66 -78 103.5t-125 37.5q-61 0 -110.5 -34.5t-84.5 -97.5t-54 -152t-19 -197q0 -105 20.5 -193.5t57.5 -153.5t89 -101.5t114 -36.5q74 0 130 45.5t101 124.5l174 -113q-72 -124 -175 -187t-224 -63
q-113 0 -209 40.5t-166.5 123.5t-110 208.5t-39.5 295.5q0 125 21.5 224.5t59 174.5t87.5 128t106.5 86.5t116.5 49t117 15.5q72 0 138 -21t121.5 -59.5t99 -92t71.5 -118.5zM860 1550l-272 -221h-63l-258 217l77 92l215 -135l232 129z" />
    <glyph glyph-name="ccaron" unicode="&#x10d;" 
d="M78 0zM799 621q-9 2 -13 7.5t-6 12.5t-3.5 15.5t-4.5 17.5q-28 48 -80.5 80t-128.5 32q-52 0 -98 -22.5t-80 -63t-54 -96.5t-20 -123q0 -68 18.5 -125.5t52 -100.5t80 -67t103.5 -24q28 0 58.5 6.5t61.5 21.5t61 39.5t59 59.5l133 -154q-81 -91 -178 -130.5t-205 -39.5
q-105 0 -192.5 38t-150.5 105t-98.5 159t-35.5 200q0 107 35 199.5t99 161t153.5 108t197.5 39.5q60 0 116 -12t105.5 -35t90.5 -57.5t71 -79.5zM791 1348l-236 -297h-66l-235 299l119 88l155 -181l164 179z" />
    <glyph glyph-name="Dcaron" unicode="&#x10e;" 
d="M90 0zM90 1276h330q85 0 150 -12t115 -34.5t88.5 -55.5t70.5 -76q65 -88 98 -205.5t33 -263.5q0 -145 -32.5 -261.5t-103 -198t-180.5 -125.5t-264 -44h-305v1276zM313 1085v-905h78q181 0 267.5 114.5t86.5 328.5q0 108 -18.5 193.5t-59 145.5t-103.5 91.5t-152 31.5
h-99zM777 1550l-272 -221h-63l-258 217l77 92l215 -135l232 129z" />
    <glyph glyph-name="dcaron" unicode="&#x10f;" 
d="M1059 1239q0 -69 -35.5 -149t-120.5 -183l-104 90q21 24 37.5 48t28 46t18 39.5t6.5 28.5q0 3 -6 10t-13 15q-17 18 -34 39t-17 53q0 27 9 50t25 39.5t38.5 26t48.5 9.5q23 0 44.5 -12t38 -33t26.5 -51t10 -66zM772 115q0 -25 5.5 -54.5t13.5 -60.5h-211q-13 9 -17 27
t-4 32v29q-14 -27 -37 -49t-50.5 -37.5t-57.5 -24t-58 -8.5q-77 0 -146.5 30.5t-121.5 92t-82.5 154t-30.5 217.5q0 121 31.5 216.5t84.5 161.5t121 101t142 35q25 0 53.5 -8t55 -21.5t49 -31t37.5 -35.5v501h252q0 -11 -4 -18t-9 -13t-10 -12.5t-6 -15.5v-1208zM551 489
q0 60 -6 114.5t-23 96.5t-47.5 66.5t-79.5 24.5q-60 0 -96.5 -26.5t-57 -71.5t-27.5 -103.5t-7 -122.5q0 -86 16.5 -144.5t42.5 -94.5t58.5 -52t64.5 -16q39 0 69.5 18t51 57.5t31 102t10.5 151.5z" />
    <glyph glyph-name="Dcroat" unicode="&#x110;" 
d="M90 580h-80v188h80v508h330q85 0 150 -12t115 -34.5t88.5 -55.5t70.5 -76q65 -88 98 -205.5t33 -263.5q0 -145 -32.5 -261.5t-103 -198t-180.5 -125.5t-264 -44h-305v580zM313 1085v-317h193v-188h-193v-400h78q181 0 267.5 114.5t86.5 328.5q0 108 -18.5 193.5
t-59 145.5t-103.5 91.5t-152 31.5h-99z" />
    <glyph glyph-name="dcroat" unicode="&#x111;" 
d="M918 115q0 -25 5 -54.5t13 -60.5h-217q-13 9 -17 27t-4 32v29q-16 -29 -42.5 -51t-57.5 -37t-64.5 -23t-64.5 -8q-84 0 -158 30.5t-129.5 92t-88 154t-32.5 217.5q0 121 33 216.5t89 161.5t129.5 101t154.5 35q28 0 58 -7t59.5 -19.5t56 -30.5t47.5 -39v194h-131v176h131
v131h258q0 -11 -4 -18t-8.5 -13t-9.5 -12.5t-6 -15.5v-72h88v-176h-88v-960zM690 489q0 60 -8 114.5t-28 96.5t-55.5 66.5t-90.5 24.5q-48 0 -79.5 -15.5t-59.5 -46.5q-76 -81 -76 -262q0 -86 19.5 -144.5t50.5 -94.5t67.5 -52t71.5 -16q43 0 77.5 18t59 57.5t38 102
t13.5 151.5z" />
    <glyph glyph-name="Eogonek" unicode="&#x118;" 
d="M115 1276h831v-197h-608v-315h504v-201h-504v-366h604v-197q-48 -45 -79 -73.5t-49 -47.5t-25 -31t-7 -24q0 -14 8 -23.5t23 -9.5q12 0 23 3t25.5 12t33.5 24.5t47 40.5v-178q-42 -32 -84 -49t-90 -17q-97 0 -142.5 42t-45.5 108q0 24 9.5 47.5t29.5 49.5t50.5 56.5
t73.5 69.5h-628v1276z" />
    <glyph glyph-name="eogonek" unicode="&#x119;" 
d="M528 977q85 0 159 -30t129.5 -88.5t87.5 -146t32 -202.5q0 -25 -2 -49t-4 -47h-627q8 -69 32 -118.5t58 -82t75.5 -48t84.5 -15.5q65 0 127.5 29.5t107.5 86.5l127 -129l-127 -168q-34 -45 -47.5 -77t-13.5 -52q0 -29 17 -39t32 -10q12 0 24.5 3t27.5 11.5t34 24t43 41.5
v-178q-42 -32 -84 -49t-90 -17q-97 0 -142.5 42t-45.5 108q0 92 139 225q-18 -8 -39.5 -14t-44 -11t-43.5 -7.5t-37 -2.5q-95 0 -175.5 34t-140 98t-93 156.5t-33.5 209.5q0 119 34 214t94.5 161t143 101.5t180.5 35.5zM707 582q0 45 -13.5 85.5t-38 71t-60 48.5t-79.5 18
q-42 0 -77.5 -16t-62 -45t-43 -70t-22.5 -92h396z" />
    <glyph glyph-name="Ecaron" unicode="&#x11a;" 
d="M115 0zM115 1276h831v-197h-608v-315h504v-201h-504v-366h604v-197h-827v1276zM827 1550l-272 -221h-63l-258 217l77 92l215 -135l232 129z" />
    <glyph glyph-name="ecaron" unicode="&#x11b;" 
d="M76 0zM528 977q85 0 159 -30t129.5 -88.5t87.5 -146t32 -202.5q0 -25 -2 -49t-4 -47h-627q8 -69 32 -118.5t58 -82t75.5 -48t84.5 -15.5q65 0 127.5 29.5t107.5 86.5l127 -127q-145 -172 -362 -172q-103 0 -190.5 34t-151 98t-99.5 156.5t-36 209.5q0 119 34 214
t94.5 161t143 101.5t180.5 35.5zM707 582q0 45 -13.5 85.5t-38 71t-60 48.5t-79.5 18q-42 0 -77.5 -16t-62 -45t-43 -70t-22.5 -92h396zM791 1348l-236 -297h-66l-235 299l119 88l155 -181l164 179z" />
    <glyph glyph-name="Gbreve" unicode="&#x11e;" 
d="M33 0zM813 913q-18 8 -29 15.5t-17 15.5t-9.5 16t-7.5 17q-12 28 -32.5 52.5t-46.5 43.5t-57 30t-65 11q-51 0 -101 -24.5t-89.5 -79.5t-64 -142.5t-24.5 -214.5q0 -116 21 -208t59 -155.5t89.5 -97.5t113.5 -34q46 0 94 11t88 42v240h-217v194h434v-536
q-92 -77 -189.5 -111.5t-209.5 -34.5q-125 0 -222 49.5t-163 139t-100.5 213.5t-34.5 274q0 134 25.5 236t67.5 176.5t96.5 124t112 79t114.5 42t104 12.5q65 0 124.5 -18t111.5 -51t94 -79t73 -102zM322 1667q43 -76 101.5 -111t117.5 -35q27 0 55 7t57 24t57.5 45t55.5 70
l98 -148q-34 -41 -74 -73.5t-82.5 -55t-86.5 -34t-86 -11.5q-81 0 -166.5 39.5t-171.5 130.5z" />
    <glyph glyph-name="gbreve" unicode="&#x11f;" 
d="M66 0zM475 809q-31 0 -57.5 -11t-46.5 -31.5t-31.5 -50t-11.5 -67.5q0 -32 10.5 -60t29.5 -49t46 -33.5t61 -12.5q35 0 63 12.5t47.5 33.5t29.5 49t10 60t-10 61t-29.5 51t-47.5 35t-63 13zM479 985q125 0 213 -67q45 30 97 45.5t114 15.5h66l30 -195q-19 3 -37.5 5
t-33 4t-24.5 3t-11 1q-43 0 -88 -17q14 -32 23.5 -65.5t9.5 -67.5q0 -68 -28.5 -128t-77.5 -105t-114.5 -71t-140.5 -26q-20 0 -41 2t-43 9q-28 -19 -44.5 -37t-16.5 -41q0 -28 29 -37.5t75 -9.5q35 0 73 3t69 3q101 0 171.5 -19t114 -53.5t63 -81.5t19.5 -104
q0 -59 -27.5 -113.5t-82.5 -97.5t-138 -68.5t-194 -25.5q-116 0 -199 19.5t-136 53t-78 78t-25 94.5q0 25 9 51.5t25.5 51.5t39.5 47t50 39q-35 25 -48 59.5t-13 69.5q0 48 33 97t84 91q-31 19 -55 47t-41 60t-26 67t-9 70q0 72 30.5 135t81.5 109.5t116.5 73t135.5 26.5z
M616 20q-74 0 -137 1t-131 6q-37 -22 -54.5 -51.5t-17.5 -55.5q0 -29 18.5 -48.5t50.5 -32t74 -18t89 -5.5q49 0 90 8.5t71 24t47 37t19 48.5q-3 38 -30 62t-89 24zM317 1382q43 -75 101.5 -110t117.5 -35q27 0 55.5 7t57.5 24t57 45t55 69l99 -147q-34 -42 -74 -74
t-82.5 -54.5t-87 -34t-86.5 -11.5q-80 0 -165.5 39.5t-172.5 130.5z" />
    <glyph glyph-name="Idotaccent" unicode="&#x130;" 
d="M150 0zM162 1276h712v-191h-247v-897h258v-188h-735v190h247v895h-235v191zM528 1667q29 0 55.5 -10.5t46.5 -28.5t32 -42t12 -52t-12 -52t-32 -42t-46.5 -28.5t-55.5 -10.5q-28 0 -54 10.5t-45.5 28.5t-31.5 42t-12 52q0 24 10 48t28.5 43t45 30.5t59.5 11.5z" />
    <glyph glyph-name="dotlessi" unicode="&#x131;" 
d="M193 956h448v-772h209v-184h-668v184h230v588h-219v184z" />
    <glyph glyph-name="kgreenlandic" unicode="&#x138;" 
d="M123 958h260q0 -12 -4 -19t-9 -12t-10 -11t-6 -15v-297l367 363q73 -17 117 -17h149l-391 -377q51 -61 107 -136.5t112.5 -152.5t111 -150.5t101.5 -131.5l-280 -10l-316 440l-78 -74v-358h-231v958z" />
    <glyph glyph-name="Lacute" unicode="&#x139;" 
d="M125 0zM940 193v-193h-815v1276h250q4 -4 4 -10q0 -8 -7.5 -19.5t-11.5 -42.5v-1011h580zM730 1468l-369 -129l-55 101l313 231z" />
    <glyph glyph-name="lacute" unicode="&#x13a;" 
d="M137 0zM150 1382h479v-1204h262v-178h-754v178h262v1026h-249v178zM730 1556l-369 -129l-55 101l313 231z" />
    <glyph glyph-name="Lcaron" unicode="&#x13d;" 
d="M125 0zM940 193v-193h-815v1276h250q4 -4 4 -10q0 -8 -7.5 -19.5t-11.5 -42.5v-1011h580zM906 1157q0 -137 -205 -342l-119 103q25 24 46.5 47.5t36.5 45t23.5 38.5t8.5 28q0 3 -6.5 10t-14.5 15q-21 18 -39 39t-18 53q0 27 10 50t28.5 39.5t43.5 26t55 9.5q29 0 56 -12
t48 -33t33.5 -51t12.5 -66z" />
    <glyph glyph-name="lcaron" unicode="&#x13e;" 
d="M103 0zM116 1382h479v-1204h262v-178h-754v178h262v1026h-249v178zM1004 1239q0 -137 -205 -342l-119 102q25 24 46.5 48t36.5 45t23.5 38.5t8.5 28.5q0 3 -6.5 10t-14.5 15q-21 18 -39 39t-18 53q0 27 10 50t28.5 39.5t43.5 26t55 9.5q29 0 56 -12t48 -33t33.5 -51
t12.5 -66z" />
    <glyph glyph-name="Lslash" unicode="&#x141;" 
d="M940 195v-193h-815v451l-115 -37v194l115 37v629h250q4 -4 4 -10q0 -8 -7.5 -19.5t-11.5 -42.5v-480l283 93q20 9 38.5 21t35.5 26v-219l-357 -116v-334h580z" />
    <glyph glyph-name="lslash" unicode="&#x142;" 
d="M150 1382h479v-579l57 20q12 6 38 21.5t77 46.5v-232l-172 -58v-423h262v-178h-754v178h262v346l-151 -51v199l151 52v480h-249v178z" />
    <glyph glyph-name="Nacute" unicode="&#x143;" 
d="M66 0zM958 0h-253l-433 965v-965h-206v1276h280l406 -914v914h221q4 -4 4 -10q0 -8 -7.5 -19.5t-11.5 -42.5v-1204zM730 1468l-369 -129l-55 101l313 231z" />
    <glyph glyph-name="nacute" unicode="&#x144;" 
d="M123 0zM123 0v956h231v-98q50 54 116 86.5t134 32.5q72 0 131 -22t100.5 -69.5t64 -123t22.5 -182.5v-580h-226v578q0 55 -10 95t-28 65.5t-43 37.5t-56 12q-43 0 -80.5 -17t-65 -48t-43.5 -74.5t-16 -95.5v-553h-231zM571 1462l166 -114l-215 -289l-114 67z" />
    <glyph glyph-name="Ncaron" unicode="&#x147;" 
d="M66 0zM958 0h-253l-433 965v-965h-206v1276h280l406 -914v914h221q4 -4 4 -10q0 -8 -7.5 -19.5t-11.5 -42.5v-1204zM827 1550l-272 -221h-63l-258 217l77 92l215 -135l232 129z" />
    <glyph glyph-name="ncaron" unicode="&#x148;" 
d="M123 0zM123 0v956h231v-98q50 54 116 86.5t134 32.5q72 0 131 -22t100.5 -69.5t64 -123t22.5 -182.5v-580h-226v578q0 55 -10 95t-28 65.5t-43 37.5t-56 12q-43 0 -80.5 -17t-65 -48t-43.5 -74.5t-16 -95.5v-553h-231zM791 1348l-236 -297h-66l-235 299l119 88l155 -181
l164 179z" />
    <glyph glyph-name="Eng" unicode="&#x14a;" 
d="M598 158q102 0 102 190v512q0 70 -11.5 118t-31.5 77t-48 42t-62 13q-44 0 -87 -20t-77 -55t-55 -84t-21 -107v-844h-237v1276h237v-94q54 54 121 89.5t141 35.5q88 0 155.5 -25.5t113.5 -79.5t70 -138t24 -200v-508q0 -99 -23.5 -173t-68 -123.5t-107.5 -74t-141 -24.5
q-54 0 -110 18.5t-117 55.5l106 186q18 0 31 -20q9 -16 32.5 -29.5t63.5 -13.5z" />
    <glyph glyph-name="eng" unicode="&#x14b;" 
d="M123 0v956h231v-98q50 54 116 86.5t134 32.5q72 0 131 -22t100.5 -69.5t64 -123t22.5 -182.5v-471q0 -125 -27.5 -215t-76.5 -148t-116 -85.5t-145 -27.5q-118 0 -238 93l103 200q15 -5 21.5 -15.5t19.5 -27.5q4 -6 13 -14t21.5 -15.5t28.5 -12.5t35 -5q68 0 101.5 62
t33.5 190v490q0 55 -10 95t-28 65.5t-43 37.5t-56 12q-43 0 -80.5 -17t-65 -48t-43.5 -74.5t-16 -95.5v-553h-231z" />
    <glyph glyph-name="omacron" unicode="&#x14d;" 
d="M59 0zM520 977q93 0 174 -34t141.5 -98.5t95 -158.5t34.5 -213t-34 -213t-93.5 -159t-141.5 -99.5t-178 -34.5t-179.5 37t-146 104t-98 159t-35.5 202q0 109 36.5 202t99.5 161t146.5 106.5t178.5 38.5zM737 469q0 78 -16.5 138t-46.5 101.5t-71 63t-89 21.5
q-49 0 -89.5 -21.5t-69 -62.5t-44.5 -99.5t-16 -132.5t15.5 -133.5t44.5 -101.5t70.5 -65t92.5 -23q100 0 159.5 81t59.5 234zM221 1313h574v-180h-574v180z" />
    <glyph glyph-name="Ohungarumlaut" unicode="&#x150;" 
d="M35 0zM514 -37q-113 0 -202 50.5t-150.5 141t-94 215t-32.5 271.5q0 148 33.5 271t96 211t151.5 137t200 49q96 0 182 -41t150.5 -124t102.5 -209t38 -296q0 -123 -19 -221t-52 -173t-78 -128.5t-98 -87.5t-111 -50t-117 -16zM272 653q0 -117 18 -207t50.5 -151t77 -92
t98.5 -31q46 0 88.5 23t74.5 78t51.5 145.5t19.5 224.5q0 128 -21 216t-54 142.5t-74.5 78.5t-82.5 24q-49 0 -93.5 -22t-78.5 -74t-54 -138.5t-20 -216.5zM838 1686l118 -170l-317 -209l-78 98zM471 1686l119 -170l-318 -209l-77 98z" />
    <glyph glyph-name="ohungarumlaut" unicode="&#x151;" 
d="M59 0zM520 977q93 0 174 -34t141.5 -98.5t95 -158.5t34.5 -213t-34 -213t-93.5 -159t-141.5 -99.5t-178 -34.5t-179.5 37t-146 104t-98 159t-35.5 202q0 109 36.5 202t99.5 161t146.5 106.5t178.5 38.5zM737 469q0 78 -16.5 138t-46.5 101.5t-71 63t-89 21.5
q-49 0 -89.5 -21.5t-69 -62.5t-44.5 -99.5t-16 -132.5t15.5 -133.5t44.5 -101.5t70.5 -65t92.5 -23q100 0 159.5 81t59.5 234zM412 1462l166 -114l-216 -289l-114 67zM729 1462l166 -114l-215 -289l-115 67z" />
    <glyph glyph-name="OE" unicode="&#x152;" 
d="M369 1294q28 0 61 -12t59 -35v31h521v-197h-318v-317h269v-199h-269v-368h314v-197h-519v33q-27 -22 -61.5 -34.5t-63.5 -12.5q-81 0 -146.5 39t-112 119t-72 203.5t-25.5 291.5q0 325 94.5 490t268.5 165zM369 1104q-31 0 -57 -22.5t-45.5 -75.5t-30.5 -142.5
t-11 -222.5q0 -220 38.5 -339.5t121.5 -119.5q38 0 62 30t30 83v682q-11 54 -37 90.5t-71 36.5z" />
    <glyph glyph-name="oe" unicode="&#x153;" 
d="M344 973q27 0 52.5 -7.5t49 -19.5t43.5 -28t35 -33q16 16 37 32t45.5 28.5t51 20t53.5 7.5q70 0 126 -26t95 -76.5t59.5 -123.5t20.5 -167v-156h-430q1 -78 12.5 -129t31.5 -81.5t47.5 -43t61.5 -12.5q27 0 49 7t42.5 20.5t41.5 33t45 45.5l119 -149q-66 -68 -136.5 -107
t-154.5 -39q-29 0 -61 7t-62.5 18.5t-56.5 26.5t-43 32q-35 -35 -83.5 -58.5t-102.5 -23.5q-59 0 -117 24t-104.5 81.5t-75.5 154.5t-29 244q0 135 28.5 230t75.5 154.5t108 86.5t126 27zM688 795q-50 0 -75.5 -51.5t-28.5 -137.5h221q-2 103 -30 146t-87 43zM342 784
q-26 0 -49 -16.5t-41 -51.5t-28.5 -89.5t-10.5 -130.5q0 -162 35 -247t100 -85q23 0 36 12t13 29q0 3 -1.5 11.5t-4.5 27.5q-11 65 -14.5 130.5t-3.5 119.5q0 85 4.5 140t9.5 81q2 9 2 12.5v5.5q0 19 -11 35t-36 16z" />
    <glyph glyph-name="Racute" unicode="&#x154;" 
d="M96 0zM96 1276h404q119 0 203.5 -27.5t138.5 -77.5t79 -120t25 -156q0 -52 -17.5 -105t-49 -99.5t-77 -82t-100.5 -53.5l299 -555h-258l-264 528h-149v-528h-234v1276zM330 1073v-350h184q51 0 88.5 12.5t61.5 35t35.5 54.5t11.5 70q0 90 -47 134t-150 44h-184zM730 1468
l-369 -129l-55 101l313 231z" />
    <glyph glyph-name="racute" unicode="&#x155;" 
d="M182 0zM182 956h236v-104q23 26 52 49t62 40t69.5 26.5t74.5 9.5q81 0 154.5 -25.5t130.5 -79.5l-107 -223q-50 69 -96 101t-92 32q-53 0 -98.5 -22.5t-80 -61t-54 -90t-19.5 -108.5v-500h-232v956zM571 1462l166 -114l-215 -289l-114 67z" />
    <glyph glyph-name="Rcaron" unicode="&#x158;" 
d="M96 0zM96 1276h404q119 0 203.5 -27.5t138.5 -77.5t79 -120t25 -156q0 -52 -17.5 -105t-49 -99.5t-77 -82t-100.5 -53.5l299 -555h-258l-264 528h-149v-528h-234v1276zM330 1073v-350h184q51 0 88.5 12.5t61.5 35t35.5 54.5t11.5 70q0 90 -47 134t-150 44h-184zM827 1550
l-272 -221h-63l-258 217l77 92l215 -135l232 129z" />
    <glyph glyph-name="rcaron" unicode="&#x159;" 
d="M182 0zM182 956h236v-104q23 26 52 49t62 40t69.5 26.5t74.5 9.5q81 0 154.5 -25.5t130.5 -79.5l-107 -223q-50 69 -96 101t-92 32q-53 0 -98.5 -22.5t-80 -61t-54 -90t-19.5 -108.5v-500h-232v956zM791 1348l-236 -297h-66l-235 299l119 88l155 -181l164 179z" />
    <glyph glyph-name="Sacute" unicode="&#x15a;" 
d="M57 0zM780 946q-15 1 -21.5 6t-10 13t-5.5 17.5t-8 18.5q-34 51 -95 85t-144 34q-36 0 -65.5 -11.5t-50 -31t-31.5 -45t-11 -53.5q0 -33 11.5 -62.5t42 -58t83 -57.5t133.5 -62q97 -39 161.5 -81.5t103 -90t54 -101t15.5 -114.5q0 -72 -24.5 -142t-79 -124.5
t-140.5 -88.5t-209 -34q-130 0 -237 49.5t-195 143.5l117 204q12 -3 18.5 -9t11.5 -14t10 -18t13 -22q21 -26 48.5 -51t62.5 -44t77 -30.5t93 -11.5q94 0 147.5 43.5t53.5 136.5q0 29 -12 55.5t-40.5 52t-76.5 52t-121 55.5q-96 39 -164 82t-111.5 92t-63.5 104t-20 117
q0 75 31 140t86.5 114t132 77t168.5 28q116 0 218 -49t173 -142zM730 1468l-369 -129l-55 101l313 231z" />
    <glyph glyph-name="sacute" unicode="&#x15b;" 
d="M96 0zM799 645q-8 0 -12.5 4.5t-7 11t-4.5 14t-5 13.5q-18 22 -45 42.5t-59.5 35.5t-69 24t-72.5 9q-31 0 -59 -4.5t-49.5 -14.5t-34 -26t-12.5 -39q0 -26 13.5 -43.5t40.5 -32t68 -27.5t97 -28q171 -48 251.5 -123t80.5 -172q0 -65 -29 -123t-82 -102.5t-128.5 -70.5
t-168.5 -26q-121 0 -223.5 38.5t-192.5 123.5l119 215q12 -2 18 -14.5t15 -34.5q16 -26 46 -50.5t67 -44.5t77.5 -32t77.5 -12q82 0 127 23.5t45 70.5q0 24 -10 42t-31.5 33.5t-56.5 29t-86 28.5q-28 8 -55.5 16t-55.5 19q-56 21 -100 47.5t-74.5 59.5t-46.5 74.5t-16 92.5
t28.5 102t78.5 91.5t119.5 66t152.5 25.5q109 0 202.5 -39t171.5 -127zM571 1462l166 -114l-215 -289l-114 67z" />
    <glyph glyph-name="Scedilla" unicode="&#x15e;" 
d="M780 946q-15 1 -21.5 6t-10 13t-5.5 17.5t-8 18.5q-34 51 -95 85t-144 34q-36 0 -65.5 -11.5t-50 -31t-31.5 -45t-11 -53.5q0 -33 11.5 -62.5t42 -58t83 -57.5t133.5 -62q97 -39 161.5 -81.5t103 -90t54 -101t15.5 -114.5q0 -64 -19 -126t-60.5 -113.5t-107 -89
t-157.5 -52.5l-4 -34q77 -8 118.5 -47t41.5 -99q0 -32 -16 -64.5t-48.5 -58t-81.5 -41.5t-116 -16q-65 0 -131 21.5t-128 72.5l76 129q30 -25 56 -41.5t51 -26t49.5 -13t50.5 -3.5q29 0 40 12t11 23t-13.5 22t-39.5 11h-100l18 147q-222 23 -375 191l117 204q12 -3 18.5 -9
t11.5 -14t10 -18t13 -22q21 -26 48.5 -51t62.5 -44t77 -30.5t93 -11.5q94 0 147.5 43.5t53.5 136.5q0 29 -12 55.5t-40.5 52t-76.5 52t-121 55.5q-96 39 -164 82t-111.5 92t-63.5 104t-20 117q0 75 31 140t86.5 114t132 77t168.5 28q116 0 218 -49t173 -142z" />
    <glyph glyph-name="scedilla" unicode="&#x15f;" 
d="M799 645q-8 0 -12.5 4.5t-7 11t-4.5 14t-5 13.5q-18 22 -45 42.5t-59.5 35.5t-69 24t-72.5 9q-31 0 -59 -4.5t-49.5 -14.5t-34 -26t-12.5 -39q0 -26 13.5 -43.5t40.5 -32t68 -27.5t97 -28q171 -48 251.5 -123t80.5 -172q0 -57 -22.5 -109t-64 -94t-101 -71.5
t-134.5 -41.5l-4 -36q77 -8 118.5 -47t41.5 -99q0 -32 -16 -64.5t-48.5 -58t-81.5 -41.5t-116 -16q-65 0 -131 21.5t-128 72.5l76 129q30 -25 56 -41.5t51 -26t49.5 -13t50.5 -3.5q29 0 40 12t11 23t-13.5 22t-39.5 11h-100l20 153q-96 11 -179.5 49t-158.5 109l119 215
q12 -2 18 -14.5t15 -34.5q16 -26 46 -50.5t67 -44.5t77.5 -32t77.5 -12q82 0 127 23.5t45 70.5q0 24 -10 42t-31.5 33.5t-56.5 29t-86 28.5q-28 8 -55.5 16t-55.5 19q-56 21 -100 47.5t-74.5 59.5t-46.5 74.5t-16 92.5t28.5 102t78.5 91.5t119.5 66t152.5 25.5
q109 0 202.5 -39t171.5 -127z" />
    <glyph glyph-name="Scaron" unicode="&#x160;" 
d="M57 0zM780 946q-15 1 -21.5 6t-10 13t-5.5 17.5t-8 18.5q-34 51 -95 85t-144 34q-36 0 -65.5 -11.5t-50 -31t-31.5 -45t-11 -53.5q0 -33 11.5 -62.5t42 -58t83 -57.5t133.5 -62q97 -39 161.5 -81.5t103 -90t54 -101t15.5 -114.5q0 -72 -24.5 -142t-79 -124.5
t-140.5 -88.5t-209 -34q-130 0 -237 49.5t-195 143.5l117 204q12 -3 18.5 -9t11.5 -14t10 -18t13 -22q21 -26 48.5 -51t62.5 -44t77 -30.5t93 -11.5q94 0 147.5 43.5t53.5 136.5q0 29 -12 55.5t-40.5 52t-76.5 52t-121 55.5q-96 39 -164 82t-111.5 92t-63.5 104t-20 117
q0 75 31 140t86.5 114t132 77t168.5 28q116 0 218 -49t173 -142zM837 1552l-272 -221h-63l-258 217l77 92l215 -135l232 129z" />
    <glyph glyph-name="scaron" unicode="&#x161;" 
d="M96 0zM799 645q-8 0 -12.5 4.5t-7 11t-4.5 14t-5 13.5q-18 22 -45 42.5t-59.5 35.5t-69 24t-72.5 9q-31 0 -59 -4.5t-49.5 -14.5t-34 -26t-12.5 -39q0 -26 13.5 -43.5t40.5 -32t68 -27.5t97 -28q171 -48 251.5 -123t80.5 -172q0 -65 -29 -123t-82 -102.5t-128.5 -70.5
t-168.5 -26q-121 0 -223.5 38.5t-192.5 123.5l119 215q12 -2 18 -14.5t15 -34.5q16 -26 46 -50.5t67 -44.5t77.5 -32t77.5 -12q82 0 127 23.5t45 70.5q0 24 -10 42t-31.5 33.5t-56.5 29t-86 28.5q-28 8 -55.5 16t-55.5 19q-56 21 -100 47.5t-74.5 59.5t-46.5 74.5t-16 92.5
t28.5 102t78.5 91.5t119.5 66t152.5 25.5q109 0 202.5 -39t171.5 -127zM791 1348l-236 -297h-66l-235 299l119 88l155 -181l164 179z" />
    <glyph glyph-name="Tcedilla" unicode="&#x162;" 
d="M41 1276h940v-199h-360v-1077h-39l-9 -63q78 -8 119 -47t41 -99q0 -32 -16 -64.5t-48.5 -58t-81.5 -41.5t-116 -16q-65 0 -130.5 21.5t-127.5 72.5l76 129q30 -25 56 -41.5t51 -26t49.5 -13t50.5 -3.5q29 0 40 12t11 23t-13.5 22t-39.5 11h-101l25 182h-31v1077h-346v199
z" />
    <glyph glyph-name="tcedilla" unicode="&#x163;" 
d="M348 1180l254 43q0 -26 -8 -43t-14 -39l-21 -185h289v-186h-297q-3 -74 -9.5 -153t-6.5 -156q0 -78 3.5 -134t15 -91t33 -51.5t56.5 -16.5q34 0 90 29.5t127 83.5l72 -189q-60 -43 -118.5 -71.5t-117.5 -40.5l-4 -43q78 -8 119 -47t41 -99q0 -32 -16 -64.5t-48.5 -58
t-81.5 -41.5t-116 -16q-65 0 -130.5 21.5t-127.5 72.5l76 129q30 -25 56 -41.5t50.5 -26t49 -13t50.5 -3.5q29 0 40.5 12t11.5 23t-14 22t-40 11h-100l20 155q-119 20 -174 113t-55 272q0 69 4 170.5t15 241.5h-207v186h219z" />
    <glyph glyph-name="Tcaron" unicode="&#x164;" 
d="M41 0zM41 1276h940v-199h-360v-1077h-234v1077h-346v199zM827 1550l-272 -221h-63l-258 217l77 92l215 -135l232 129z" />
    <glyph glyph-name="tcaron" unicode="&#x165;" 
d="M65 0zM298 1180l254 43q0 -26 -8 -43t-14 -39l-21 -185h289v-186h-297q-3 -74 -9.5 -153t-6.5 -156q0 -78 3.5 -134t15 -91t33 -51.5t56.5 -16.5q34 0 90 29.5t127 83.5l72 -189q-84 -60 -164.5 -92.5t-159.5 -32.5q-80 0 -137.5 22.5t-95 70t-55 121.5t-17.5 177
q0 69 4 170.5t15 241.5h-207v186h219zM1024 1311q0 -137 -205 -342l-119 102q25 24 46.5 48t36.5 45t23.5 38.5t8.5 28.5q0 3 -6.5 10t-14.5 15q-21 18 -39 39t-18 53q0 27 10 50t28.5 39.5t43.5 26t55 9.5q29 0 56 -12t48 -33t33.5 -51t12.5 -66z" />
    <glyph glyph-name="Uring" unicode="&#x16e;" 
d="M76 0zM76 1276h243q4 -3 4.5 -5t0.5 -5q0 -4 -2.5 -8.5t-5.5 -11.5t-6.5 -17t-4.5 -25v-755q0 -66 10 -119.5t34 -90.5t64 -57t99 -20q61 0 101.5 20.5t65 58.5t34.5 92t10 122v821h225v-819q0 -125 -31 -216.5t-88 -151.5t-138 -89t-181 -29q-107 0 -188 33t-136 95
t-82.5 151t-27.5 201v825zM518 1669q44 0 83 -16t68.5 -44t46.5 -64.5t17 -78.5t-17 -79t-46.5 -65t-68.5 -44t-83 -16q-43 0 -81.5 16t-67 44t-45.5 65t-17 79t17 78.5t45.5 64.5t67 44t81.5 16zM455 1468q0 -32 18.5 -53.5t46.5 -21.5t47 21.5t19 53.5t-19 55t-47 23
t-46.5 -23t-18.5 -55z" />
    <glyph glyph-name="uring" unicode="&#x16f;" 
d="M104 0zM903 956v-841q0 -26 5.5 -55t13.5 -60h-222q-12 9 -16 27t-4 32v31q-21 -31 -51 -55t-65 -41t-71.5 -26t-70.5 -9q-75 0 -134 22t-100 70t-62.5 124t-21.5 183v598h226v-598q0 -110 37.5 -160.5t99.5 -50.5q43 0 80.5 17.5t65 48.5t43.5 74.5t16 95.5v573h231z
M510 1456q44 0 83 -16t68.5 -44t46.5 -64.5t17 -78.5t-17 -79t-46.5 -65t-68.5 -44t-83 -16q-43 0 -81.5 16t-67 44t-45.5 65t-17 79t17 78.5t45.5 64.5t67 44t81.5 16zM446 1255q0 -32 19 -53.5t47 -21.5t47 21.5t19 53.5t-19 55t-47 23t-47 -23t-19 -55z" />
    <glyph glyph-name="uhungarumlaut" unicode="&#x171;" 
d="M104 0zM903 956v-841q0 -26 5.5 -55t13.5 -60h-222q-12 9 -16 27t-4 32v31q-21 -31 -51 -55t-65 -41t-71.5 -26t-70.5 -9q-75 0 -134 22t-100 70t-62.5 124t-21.5 183v598h226v-598q0 -110 37.5 -160.5t99.5 -50.5q43 0 80.5 17.5t65 48.5t43.5 74.5t16 95.5v573h231z
M412 1462l166 -114l-216 -289l-114 67zM729 1462l166 -114l-215 -289l-115 67z" />
    <glyph glyph-name="Ydieresis" unicode="&#x178;" 
d="M18 0zM18 1276h256l263 -516l233 516h248l-365 -774v-502h-241v504zM319 1663q31 0 57.5 -11.5t46 -30t30 -42.5t10.5 -49q0 -27 -11.5 -51t-31 -41.5t-46 -28t-55.5 -10.5t-55 10.5t-45 28t-30 41.5t-11 51t11 51t30 42.5t45 29t55 10.5zM696 1663q32 0 58 -11.5
t44.5 -30.5t28.5 -43t10 -48q0 -27 -11 -51t-30 -41.5t-45 -28t-55 -10.5t-55 10t-45 27.5t-30 41.5t-11 52t11 52t30 42t45 28.5t55 10.5z" />
    <glyph glyph-name="Zacute" unicode="&#x179;" 
d="M84 0zM106 1276h838v-139l-567 -940h491q22 3 35.5 8t24 10t21 8.5t26.5 3.5v-227h-891v139l578 938h-556v199zM730 1468l-369 -129l-55 101l313 231z" />
    <glyph glyph-name="zacute" unicode="&#x17a;" 
d="M88 0zM127 936h764v-143l-490 -600h435q16 1 28 6t23.5 10.5t22.5 9.5t26 4v-223h-848v143l496 598h-457v195zM571 1462l166 -114l-215 -289l-114 67z" />
    <glyph glyph-name="Zdotaccent" unicode="&#x17b;" 
d="M84 0zM106 1276h838v-139l-567 -940h491q22 3 35.5 8t24 10t21 8.5t26.5 3.5v-227h-891v139l578 938h-556v199zM559 1654q29 0 55.5 -10.5t46.5 -28.5t32 -42t12 -52t-12 -52t-32 -42t-46.5 -28.5t-55.5 -10.5q-28 0 -54 10.5t-45.5 28.5t-31.5 42t-12 52q0 24 10 48
t28.5 43t45 30.5t59.5 11.5z" />
    <glyph glyph-name="zdot" unicode="&#x17c;" 
d="M88 0zM127 936h764v-143l-490 -600h435q16 1 28 6t23.5 10.5t22.5 9.5t26 4v-223h-848v143l496 598h-457v195zM418 1354q39 39 102 39q28 0 54.5 -11t46 -29.5t31.5 -43t12 -52.5q0 -27 -12 -51.5t-31.5 -43t-46 -29.5t-54.5 -11q-30 0 -56 11t-45.5 29.5t-30.5 43
t-11 51.5q0 28 9.5 51.5t31.5 45.5z" />
    <glyph glyph-name="Zcaron" 
d="M84 0zM106 1276h838v-139l-567 -940h491q22 3 35.5 8t24 10t21 8.5t26.5 3.5v-227h-891v139l578 938h-556v199zM825 1550l-272 -221h-63l-258 217l77 92l215 -135l232 129z" />
    <glyph glyph-name="Zcaron" unicode="&#x17d;" 
d="M84 0zM106 1276h838v-139l-567 -940h491q22 3 35.5 8t24 10t21 8.5t26.5 3.5v-227h-891v139l578 938h-556v199zM825 1550l-272 -221h-63l-258 217l77 92l215 -135l232 129z" />
    <glyph glyph-name="zcaron" 
d="M88 0zM127 936h764v-143l-490 -600h435q16 1 28 6t23.5 10.5t22.5 9.5t26 4v-223h-848v143l496 598h-457v195zM791 1348l-236 -297h-66l-235 299l119 88l155 -181l164 179z" />
    <glyph glyph-name="zcaron" unicode="&#x17e;" 
d="M88 0zM127 936h764v-143l-490 -600h435q16 1 28 6t23.5 10.5t22.5 9.5t26 4v-223h-848v143l496 598h-457v195zM791 1348l-236 -297h-66l-235 299l119 88l155 -181l164 179z" />
    <glyph glyph-name="florin" unicode="&#x192;" 
d="M926 1087q-34 0 -53 12t-25 40q-8 32 -34.5 48.5t-63.5 16.5q-23 0 -45 -10t-39 -37t-29 -75.5t-16 -125.5l-9 -139h228v-184h-244q-5 -67 -10 -139.5t-11 -147t-12.5 -147.5t-13.5 -140q-11 -107 -39.5 -185.5t-71 -130t-97 -76.5t-116.5 -25q-57 0 -109.5 24.5
t-99.5 75.5l115 180q23 -2 31 -11.5t14 -19.5q11 -21 27.5 -34t36.5 -13q35 0 57.5 61t30.5 163l45 565h-228v184h238l14 164q19 212 108.5 310t235.5 98q152 0 265 -134z" />
    <glyph glyph-name="dotlessj" unicode="&#x237;" 
d="M203 956h563v-909q0 -108 -30.5 -185.5t-83 -127t-123.5 -73t-152 -23.5q-96 0 -174.5 40.5t-143.5 118.5l142 187q10 -4 13.5 -9.5t5.5 -13t6 -18t14 -25.5q10 -14 25 -29t33.5 -28t40 -21t44.5 -8q31 0 59 11.5t48.5 36.5t32.5 64t12 95v731h-332v186z" />
    <glyph glyph-name="circumflex" unicode="&#x2c6;" 
d="M254 1130l235 297h66l236 -299l-119 -88l-156 181l-164 -179z" />
    <glyph glyph-name="caron" unicode="&#x2c7;" 
d="M791 1348l-236 -297h-66l-235 299l119 88l155 -181l164 179z" />
    <glyph glyph-name="uni02C9" unicode="&#x2c9;" 
d="M221 1313h574v-180h-574v180z" />
    <glyph glyph-name="uni02CB" unicode="&#x2cb;" 
d="M686 1126l-115 -67l-215 289l166 114z" />
    <glyph glyph-name="breve" unicode="&#x2d8;" 
d="M299 1382q43 -75 101.5 -110t117.5 -35q27 0 55.5 7t57.5 24t57 45t55 69l99 -147q-34 -42 -74 -74t-82.5 -54.5t-87 -34t-86.5 -11.5q-80 0 -165.5 39.5t-172.5 130.5z" />
    <glyph glyph-name="dotaccent" unicode="&#x2d9;" 
d="M418 1354q39 39 102 39q28 0 54.5 -11t46 -29.5t31.5 -43t12 -52.5q0 -27 -12 -51.5t-31.5 -43t-46 -29.5t-54.5 -11q-30 0 -56 11t-45.5 29.5t-30.5 43t-11 51.5q0 28 9.5 51.5t31.5 45.5z" />
    <glyph glyph-name="ring" unicode="&#x2da;" 
d="M510 1456q44 0 83 -16t68.5 -44t46.5 -64.5t17 -78.5t-17 -79t-46.5 -65t-68.5 -44t-83 -16q-43 0 -81.5 16t-67 44t-45.5 65t-17 79t17 78.5t45.5 64.5t67 44t81.5 16zM446 1255q0 -32 19 -53.5t47 -21.5t47 21.5t19 53.5t-19 55t-47 23t-47 -23t-19 -55z" />
    <glyph glyph-name="ogonek" unicode="&#x2db;" 
d="M905 0q-48 -45 -79 -73.5t-49 -47.5t-25 -31t-7 -24q0 -14 8 -23.5t23 -9.5q12 0 23 3t25.5 12t33.5 24.5t47 40.5v-178q-42 -32 -84 -49t-90 -17q-97 0 -142.5 42t-45.5 108q0 24 6 47.5t22 49.5t44 56.5t71 69.5h219z" />
    <glyph glyph-name="tilde" unicode="&#x2dc;" 
d="M176 1217q125 204 258 204q44 0 79.5 -20.5t64.5 -48.5q7 -8 16.5 -18t19.5 -19t21.5 -15t23.5 -6q15 0 29 10t27.5 26.5t27 37.5t27.5 43l113 -127q-33 -41 -60.5 -73t-52.5 -54t-50 -33.5t-52 -11.5q-39 0 -71.5 16.5t-61.5 40.5q-9 8 -21 21t-25.5 26t-28.5 22t-30 9
q-31 0 -55 -33.5t-58 -99.5z" />
    <glyph glyph-name="hungarumlaut" unicode="&#x2dd;" 
d="M412 1462l166 -114l-216 -289l-114 67zM729 1462l166 -114l-215 -289l-115 67z" />
    <glyph glyph-name="quoteleft" unicode="&#x2018;" 
d="M336 920q0 81 60 181.5t182 225.5l114 -104q-29 -27 -53 -55.5t-42 -55.5t-28 -50.5t-10 -39.5q0 -11 9 -20.5t22 -20.5q26 -22 46.5 -46.5t20.5 -60.5q0 -30 -11 -56t-31 -45.5t-48.5 -30.5t-62.5 -11q-32 0 -62.5 14t-54 39t-37.5 59.5t-14 76.5z" />
    <glyph glyph-name="quoteright" unicode="&#x2019;" 
d="M659 1139q0 -82 -59.5 -182.5t-181.5 -225.5l-115 105q28 27 52.5 55.5t42.5 55t28 50t10 39.5q0 11 -9 20.5t-21 20.5q-26 22 -47 47t-21 60q0 30 11 56t31 45.5t48.5 30.5t63.5 11q32 0 62 -14t53.5 -39t37.5 -59.5t14 -75.5z" />
    <glyph glyph-name="quotesinglbase" unicode="&#x201a;" 
d="M662 61q0 -81 -60 -181.5t-182 -225.5l-115 104q28 27 52.5 55.5t42.5 55.5t28 50.5t10 39.5q0 11 -9 20.5t-21 20.5q-26 22 -47 46.5t-21 59.5q0 30 11 56t31 45.5t48.5 31t63.5 11.5q32 0 62.5 -14t54 -39t37.5 -59.5t14 -76.5z" />
    <glyph glyph-name="quotedblleft" unicode="&#x201c;" 
d="M553 920q0 81 60 181.5t182 225.5l114 -104q-28 -27 -52.5 -55.5t-42.5 -55.5t-28 -50.5t-10 -39.5q0 -11 9.5 -20.5t21.5 -20.5q26 -22 46.5 -46.5t20.5 -60.5q0 -30 -11 -56t-31 -45.5t-48.5 -30.5t-62.5 -11q-32 0 -62.5 14t-54 39t-37.5 59.5t-14 76.5zM131 920
q0 81 60 181.5t182 225.5l114 -104q-28 -27 -52.5 -55.5t-42.5 -55.5t-28 -50.5t-10 -39.5q0 -11 9.5 -20.5t21.5 -20.5q26 -22 47 -46.5t21 -60.5q0 -30 -11 -56t-31.5 -45.5t-49 -30.5t-62.5 -11q-32 0 -62.5 14t-54 39t-37.5 59.5t-14 76.5z" />
    <glyph glyph-name="quotedblright" unicode="&#x201d;" 
d="M457 1139q0 -82 -60 -182.5t-182 -225.5l-115 105q28 27 52.5 55.5t42.5 55t28 50t10 39.5q0 11 -9 20.5t-21 20.5q-26 22 -47 47t-21 60q0 30 11 56t31.5 45.5t48.5 30.5t63 11q32 0 62.5 -14t54 -39t37.5 -59.5t14 -75.5zM879 1139q0 -82 -60 -182.5t-182 -225.5
l-115 105q28 27 52.5 55.5t42.5 55t28 50t10 39.5q0 11 -9 20.5t-21 20.5q-26 22 -47 47t-21 60q0 30 11 56t31 45.5t48.5 30.5t63.5 11q32 0 62.5 -14t54 -39t37.5 -59.5t14 -75.5z" />
    <glyph glyph-name="quotedblbase" unicode="&#x201e;" 
d="M457 61q0 -81 -60 -181.5t-182 -225.5l-115 104q28 27 52.5 55.5t42.5 55.5t28 50.5t10 39.5q0 11 -9 20.5t-21 20.5q-26 22 -47 46.5t-21 59.5q0 30 11 56t31.5 45.5t48.5 31t63 11.5q32 0 62.5 -14t54 -39t37.5 -59.5t14 -76.5zM879 61q0 -81 -60 -181.5t-182 -225.5
l-115 104q28 27 52.5 55.5t42.5 55.5t28 50.5t10 39.5q0 11 -9 20.5t-21 20.5q-26 22 -47 46.5t-21 59.5q0 30 11 56t31 45.5t48.5 31t63.5 11.5q32 0 62.5 -14t54 -39t37.5 -59.5t14 -76.5z" />
    <glyph glyph-name="dagger" unicode="&#x2020;" 
d="M397 1335h221v-364h314v-189h-314v-1089h-221v1089h-315v189h315v364z" />
    <glyph glyph-name="daggerdbl" unicode="&#x2021;" 
d="M397 1333h221v-364h314v-189h-314v-497h314v-191h-314v-399h-221v399h-315v191h315v497h-315v189h315v364z" />
    <glyph glyph-name="bullet" unicode="&#x2022;" 
d="M313 616q0 40 16.5 75.5t44.5 62t65.5 42t80.5 15.5t81 -15.5t66 -42t44 -62t16 -75.5t-16 -75t-44 -61.5t-66 -42t-81 -15.5t-80.5 15.5t-65.5 42t-44.5 61.5t-16.5 75z" />
    <glyph glyph-name="ellipsis" unicode="&#x2026;" 
d="M350 111q0 29 10.5 54.5t30 44t45.5 29.5t58 11q31 0 58 -11t46 -29.5t30 -44t11 -54.5t-11 -54.5t-30 -44.5t-46 -30t-58 -11q-32 0 -58 11t-45.5 30t-30 44.5t-10.5 54.5zM688 111q0 29 10.5 54.5t29.5 44t45.5 29.5t57.5 11t58 -11t46.5 -29.5t30.5 -44t11 -54.5
t-11 -54.5t-30.5 -44.5t-46.5 -30t-58 -11t-57.5 11t-45.5 30t-29.5 44.5t-10.5 54.5zM10 111q0 29 10.5 54.5t30 44t45.5 29.5t58 11q31 0 58 -11t46 -29.5t30 -44t11 -54.5t-11 -54.5t-30 -44.5t-46 -30t-58 -11q-32 0 -58 11t-45.5 30t-30 44.5t-10.5 54.5z" />
    <glyph glyph-name="guilsinglleft" unicode="&#x2039;" 
d="M250 526l336 326l135 -139l-234 -224l244 -262l-139 -139l-342 369v69z" />
    <glyph glyph-name="guilsinglright" unicode="&#x203a;" 
d="M737 457l-342 -369l-139 139l244 262l-234 224l135 139l336 -326v-69z" />
    <glyph glyph-name="fraction" unicode="&#x2044;" 
d="M123 -8l635 1382l170 -96l-637 -1378z" />
    <glyph glyph-name="uni2074" unicode="&#x2074;" 
d="M584 1343h147v-460h117v-164h-117v-182h-203v184h-342v115zM541 1034l-129 -162h129v162z" />
    <glyph glyph-name="Euro" unicode="&#x20ac;" 
d="M905 954q-18 24 -37.5 51t-46.5 50t-66.5 38t-97.5 15q-89 0 -160 -59.5t-102 -176.5h482l-70 -186h-442q-2 -17 -2.5 -33t-0.5 -28v-31h416l-71 -184h-324q29 -122 99 -187t173 -65q62 0 114 29t108 81l94 -168q-73 -63 -150.5 -97t-173.5 -34q-93 0 -172.5 30t-142 87
t-105 139t-61.5 185h-127l43 184l65 4v45q0 11 0.5 21t2.5 22h-109l43 186h96q25 113 74.5 192.5t114 129.5t141 73t156.5 23q190 0 315 -137z" />
    <glyph glyph-name="trademark" unicode="&#x2122;" 
d="M489 1303v-132h-151v-516h-148v516h-153v132h452zM635 1303l117 -265l125 265h112v-648h-145v353l-68 -142h-61l-58 135v-346h-141v648h119z" />
    <glyph glyph-name="uparrow" unicode="&#x2191;" 
d="M92 834l385 487h94l361 -494l-168 -110l-139 241v-1030h-222v1041l-163 -256z" />
    <glyph glyph-name="downarrow" unicode="&#x2193;" 
d="M932 416l-385 -488h-94l-361 494l168 110l139 -262v1051h222v-1061l163 277z" />
    <glyph glyph-name="minus" unicode="&#x2212;" 
d="M78 745h868v-190h-868v190z" />
    <glyph glyph-name="visiblespace" unicode="&#x2423;" 
d="M84 145h182v-172h488v172h186v-331h-856v331z" />
    <glyph glyph-name="dotaccent.cap" 
d="M528 1667q29 0 55.5 -10.5t46.5 -28.5t32 -42t12 -52t-12 -52t-32 -42t-46.5 -28.5t-55.5 -10.5q-28 0 -54 10.5t-45.5 28.5t-31.5 42t-12 52q0 24 10 48t28.5 43t45 30.5t59.5 11.5z" />
    <glyph glyph-name="breve.cap" 
d="M283 1655q43 -76 101.5 -111t117.5 -35q27 0 55 7t57 24t57.5 45t55.5 70l98 -148q-34 -41 -74 -73.5t-82.5 -55t-86.5 -34t-86 -11.5q-81 0 -166.5 39.5t-171.5 130.5z" />
    <glyph glyph-name="tilde.cap" 
d="M166 1464q125 205 258 205q43 0 78.5 -21t64.5 -49q8 -8 17 -17.5t19.5 -18.5t22 -15t23.5 -6q15 0 29 10t27.5 26t27 37t27.5 44l112 -127q-33 -42 -60.5 -74t-52.5 -53.5t-49.5 -33t-52.5 -11.5q-38 0 -71 16t-62 41q-9 8 -20.5 21t-25 26t-28.5 22t-30 9
q-31 0 -55 -33.5t-58 -99.5z" />
    <glyph glyph-name="dieresis.cap" 
d="M305 1663q31 0 57.5 -11.5t46 -30t30 -42.5t10.5 -49q0 -27 -11.5 -51t-31 -41.5t-46 -28t-55.5 -10.5t-55 10.5t-45 28t-30 41.5t-11 51t11 51t30 42.5t45 29t55 10.5zM682 1663q32 0 58 -11.5t44.5 -30.5t28.5 -43t10 -48q0 -27 -11 -51t-30 -41.5t-45 -28t-55 -10.5
t-55 10t-45 27.5t-30 41.5t-11 52t11 52t30 42t45 28.5t55 10.5z" />
    <glyph glyph-name="circumflex.cap" 
d="M219 1417l273 221h63l258 -217l-78 -92l-215 135l-231 -129z" />
    <glyph glyph-name="caron.cap" 
d="M788 1550l-272 -221h-63l-258 217l77 92l215 -135l232 129z" />
    <glyph glyph-name="grave.cap" 
d="M436 1671l314 -231l-56 -101l-368 129z" />
    <glyph glyph-name="acute.cap" 
d="M764 1468l-369 -129l-55 101l313 231z" />
    <glyph glyph-name="ring.cap" 
d="M518 1669q44 0 83 -16t68.5 -44t46.5 -64.5t17 -78.5t-17 -79t-46.5 -65t-68.5 -44t-83 -16q-43 0 -81.5 16t-67 44t-45.5 65t-17 79t17 78.5t45.5 64.5t67 44t81.5 16zM455 1468q0 -32 18.5 -53.5t46.5 -21.5t47 21.5t19 53.5t-19 55t-47 23t-46.5 -23t-18.5 -55z" />
    <glyph glyph-name="r.serif" 
d="M63 956h355v-104q23 26 52 49t62 40t69.5 26.5t74.5 9.5q81 0 154.5 -25.5t130.5 -79.5l-107 -223q-50 69 -96 101t-92 32q-53 0 -98.5 -22.5t-80 -61t-54 -90t-19.5 -108.5v-322h176v-178h-531v178h123v594h-119v184z" />
    <glyph glyph-name="hungarumlaut.cap" 
d="M838 1686l118 -170l-317 -209l-78 98zM471 1686l119 -170l-318 -209l-77 98z" />
    <glyph glyph-name="zero.noslash" 
d="M512 1303q91 0 172 -46.5t142 -135t96.5 -215.5t35.5 -288q0 -167 -37 -290.5t-98.5 -205t-142.5 -121.5t-168 -40q-91 0 -171.5 48.5t-140.5 136.5t-95 211t-35 272t36 273t96.5 213t140.5 138.5t169 49.5zM289 635q0 -97 15.5 -182.5t45 -149t71 -100.5t93.5 -37
t93.5 37t71 100.5t45 149t15.5 182.5t-16.5 182t-46.5 149t-71.5 101t-90.5 37q-50 0 -91.5 -37t-71 -101t-46 -149t-16.5 -182z" />
    <glyph glyph-name="grave" unicode="`" 
d="M244 1333l180 84l65 -166q22 -52 47.5 -82.5t53.5 -58.5q31 -31 51.5 -58.5t20.5 -68.5q-1 -29 -13 -49.5t-30 -33t-38 -18t-38 -5.5q-24 0 -49 6t-54 34.5t-62.5 88.5t-74.5 168z" />
    <glyph glyph-name="afii57929" unicode="&#x2bc;" 
d="M668 1239q0 -137 -205 -342l-119 102q25 24 46.5 48t36.5 45t23.5 38.5t8.5 28.5q0 3 -6.5 10t-14.5 15q-21 18 -39 39t-18 53q0 27 10 50t28.5 39.5t43.5 26t55 9.5q29 0 56 -12t48 -33t33.5 -51t12.5 -66z" />
    <glyph glyph-name="Apostrophe" unicode="&#xf40a;" 
d="M670 1157q0 -137 -205 -342l-119 103q25 24 46.5 47.5t36.5 45t23.5 38.5t8.5 28q0 3 -6.5 10t-14.5 15q-21 18 -39 39t-18 53q0 27 10 50t28.5 39.5t43.5 26t55 9.5q29 0 56 -12t48 -33t33.5 -51t12.5 -66z" />
    <glyph glyph-name="m" unicode="m" 
d="M66 0v967h196v-60q45 48 90.5 69t85.5 21q19 0 40.5 -5.5t42 -19t39.5 -35.5t34 -54q35 56 88 85t106 29q55 0 91.5 -18.5t58.5 -55t31.5 -91t9.5 -125.5v-707h-213v668q0 80 -13.5 114.5t-47.5 34.5q-78 0 -78 -188v-629h-211v657q0 51 -5.5 82.5t-14 48.5t-19 23
t-21.5 6q-19 0 -34.5 -8.5t-26.5 -29t-17 -55.5t-6 -89v-635h-206z" />
    <glyph glyph-name="Uhungarumlaut" unicode="&#x170;" 
d="M76 0zM76 1276h243q4 -3 4.5 -5t0.5 -5q0 -4 -2.5 -8.5t-5.5 -11.5t-6.5 -17t-4.5 -25v-755q0 -66 10 -119.5t34 -90.5t64 -57t99 -20q61 0 101.5 20.5t65 58.5t34.5 92t10 122v821h225v-819q0 -125 -31 -216.5t-88 -151.5t-138 -89t-181 -29q-107 0 -188 33t-136 95
t-82.5 151t-27.5 201v825zM838 1686l118 -170l-317 -209l-78 98zM471 1686l119 -170l-318 -209l-77 98z" />
    <glyph glyph-name=".ttfautohint" 
d="M0 0z" />
  </font>
</defs>
</svg>
